foobar2000 1.3.8 / Dynamic Range Meter 1.1.1
log date: 2015-08-14 02:30:11

--------------------------------------------------------------------------------
Analyzed: Grace Potter / Midnight
--------------------------------------------------------------------------------

DR         Peak         RMS     Duration Track
--------------------------------------------------------------------------------
DR6        0.00 dB    -8.08 dB      3:31 01-Hot to the Touch
DR6        0.00 dB    -7.75 dB      2:53 02-Alive Tonight
DR7        0.00 dB    -9.03 dB      3:39 03-Your Girl
DR6        0.00 dB    -7.67 dB      3:16 04-Empty Heart
DR6        0.00 dB    -8.07 dB      4:02 05-The Miner
DR5        0.00 dB    -7.68 dB      4:57 06-Delirious
DR5        0.00 dB    -7.50 dB      3:12 07-Look What We've Become
DR6        0.00 dB    -7.36 dB      3:09 08-Instigators
DR4        0.00 dB    -6.43 dB      3:42 09-Biggest Fan
DR6        0.00 dB    -8.56 dB      4:05 10-Low
DR5        0.00 dB    -7.99 dB      3:54 11-Nobody's Born With a Broken Heart
DR7        0.00 dB   -11.38 dB      4:15 12-Let You Go
--------------------------------------------------------------------------------

Number of tracks:  12
Official DR value: DR6

Samplerate:        44100 Hz
Channels:          2
Bits per sample:   16
Bitrate:           785 kbps
Codec:             FLAC
================================================================================