General
Unique ID                                : 162020267684888830653343783220061250082 (0x79E3F7F07B17DBA6A63030094451A222)
Complete name                            : Oxen.Split.Torturing.aka.Shoguns.Sadism.1976.1080p.BluRay.Remux.AVC.DTS-HD.MA.2.0-SRCR.mkv
Format                                   : Matroska
Format version                           : Version 4 / Version 2
File size                                : 15.6 GiB
Duration                                 : 1h 20mn
Overall bit rate mode                    : Variable
Overall bit rate                         : 27.9 Mbps
Encoded date                             : UTC 2020-01-21 13:51:03
Writing application                      : mkvmerge v42.0.0 ('Overtime') 64-bit
Writing library                          : libebml v1.3.10 + libmatroska v1.5.2

Video
ID                                       : 1
Format                                   : AVC
Format/Info                              : Advanced Video Codec
Format profile                           : [email protected]
Format settings, CABAC                   : Yes
Format settings, ReFrames                : 3 frames
Codec ID                                 : V_MPEG4/ISO/AVC
Duration                                 : 1h 20mn
Bit rate mode                            : Variable
Bit rate                                 : 26.0 Mbps
Maximum bit rate                         : 38.0 Mbps
Width                                    : 1 920 pixels
Height                                   : 1 080 pixels
Display aspect ratio                     : 16:9
Frame rate mode                          : Constant
Frame rate                               : 23.976 (24000/1001) fps
Color space                              : YUV
Chroma subsampling                       : 4:2:0
Bit depth                                : 8 bits
Scan type                                : Progressive
Bits/(Pixel*Frame)                       : 0.523
Stream size                              : 14.6 GiB (93%)
Title                                    : MPEG-4 AVC Video / 26063 kbps / 1080p / 23.976 fps / 16:9 / High Profile 4.1
Writing library                          : x264 core 138 r2358 9e941d1
Encoding settings                        : cabac=1 / ref=4 / deblock=1:-1:-1 / analyse=0x3:0x133 / me=umh / subme=9 / psy=1 / psy_rd=1.00:0.15 / mixed_ref=1 / me_range=16 / chroma_me=1 / trellis=2 / 8x8dct=1 / cqm=0 / deadzone=21,11 / fast_pskip=1 / chroma_qp_offset=-3 / threads=12 / lookahead_threads=1 / sliced_threads=0 / slices=4 / nr=0 / decimate=1 / interlaced=0 / bluray_compat=1 / constrained_intra=0 / bframes=3 / b_pyramid=1 / b_adapt=2 / b_bias=0 / direct=3 / weightb=1 / open_gop=1 / weightp=1 / keyint=10 / keyint_min=1 / scenecut=40 / intra_refresh=0 / rc_lookahead=18 / rc=abr / mbtree=1 / bitrate=26000 / ratetol=1.0 / qcomp=0.60 / qpmin=0 / qpmax=69 / qpstep=4 / vbv_maxrate=38000 / vbv_bufsize=30000 / nal_hrd=vbr / ip_ratio=1.40 / aq=1:1.00
Default                                  : Yes
Forced                                   : No
Color range                              : Limited
Color primaries                          : BT.709
Transfer characteristics                 : BT.709
Matrix coefficients                      : BT.709

Audio
ID                                       : 2
Format                                   : DTS
Format/Info                              : Digital Theater Systems
Format profile                           : MA / Core
Mode                                     : 16
Format settings, Endianness              : Big
Codec ID                                 : A_DTS
Duration                                 : 1h 20mn
Bit rate mode                            : Variable / Constant
Bit rate                                 : 1 860 Kbps / 1 509 Kbps
Channel(s)                               : 2 channels
Channel positions                        : Front: L R
Sampling rate                            : 48.0 KHz
Frame rate                               : 93.750 fps (512 spf)
Bit depth                                : 24 bits
Compression mode                         : Lossless / Lossy
Stream size                              : 1.04 GiB (7%)
Title                                    : DTS-HD Master Audio / Japanese / 2.0 / 48 kHz / 1860 kbps / 24-bit
Language                                 : Japanese
Default                                  : Yes
Forced                                   : No

Text #1
ID                                       : 3
Format                                   : UTF-8
Codec ID                                 : S_TEXT/UTF8
Codec ID/Info                            : UTF-8 Plain Text
Duration                                 : 1h 19mn
Bit rate                                 : 26 bps
Count of elements                        : 537
Stream size                              : 15.4 KiB (0%)
Language                                 : English
Default                                  : No
Forced                                   : No

Text #2
ID                                       : 4
Format                                   : PGS
Codec ID                                 : S_HDMV/PGS
Codec ID/Info                            : Picture based subtitle format used on BDs/HD-DVDs
Duration                                 : 1h 19mn
Bit rate                                 : 23.0 Kbps
Count of elements                        : 1076
Stream size                              : 13.1 MiB (0%)
Language                                 : German
Default                                  : No
Forced                                   : No

Menu
00:00:00.000                             : :Chapter 01
00:02:50.420                             : :Chapter 02
00:08:49.112                             : :Chapter 03
00:14:45.885                             : :Chapter 04
00:24:01.732                             : :Chapter 05
00:32:20.188                             : :Chapter 06
00:40:40.563                             : :Chapter 07
00:46:10.309                             : :Chapter 08
00:51:28.085                             : :Chapter 09
01:01:24.431                             : :Chapter 10
01:10:26.514                             : :Chapter 11
01:15:14.885                             : :Chapter 12