*******************************************************************************
Time.Warp.The.Greatest.Cult.Films.of.All.Time.Vol.1.Midnight.Madness.2020.720p.AMZN.Time Warp: The Greatest Cult Films of All Time Vol 1 - Midnight Madness
*******************************************************************************

-------------------------------------------------------------------------------
                              General Information
-------------------------------------------------------------------------------
Type.................: Movie
Compression Format...: RAR
File Validation......: SFV



Video Format.........: AVC
Video Bitrate........: 3,013
Resolution...........: 1280 x 720
Color................: 8 bit
FPS..................: 29.97
Movie Information....: https://www.imdb.com/title/tt12081026/

-------------------------------------------------------------------------------
                               Post Information
-------------------------------------------------------------------------------
Posted by............: SeedyUnder
Posted to............: alt.binaries.movies
Posted on............: 6/17/2020

-------------------------------------------------------------------------------
                                 Release Notes
-------------------------------------------------------------------------------
Video
ID                                       : 1
Format                                   : AVC
Format/Info                              : Advanced Video Codec
Format profile                           : [email protected]
Format settings                          : CABAC / 4 Ref Frames
Format settings, CABAC                   : Yes
Format settings, Reference frames        : 4 frames
Codec ID                                 : V_MPEG4/ISO/AVC
Duration                                 : 1 h 41 min
Bit rate                                 : 3 013 kb/s
Width                                    : 1 280 pixels
Height                                   : 720 pixels
Display aspect ratio                     : 16:9
Frame rate mode                          : Constant
Frame rate                               : 29.970 (30000/1001) FPS
Color space                              : YUV
Chroma subsampling                       : 4:2:0
Bit depth                                : 8 bits
Scan type                                : Progressive
Bits/(Pixel*Frame)                       : 0.109
Stream size                              : 2.15 GiB (94%)
Default                                  : Yes
Forced                                   : No

Audio
ID                                       : 2
Format                                   : AAC LC
Format/Info                              : Advanced Audio Codec Low Complexity
Codec ID                                 : A_AAC-2
Duration                                 : 1 h 41 min
Bit rate                                 : 192 kb/s
Channel(s)                               : 2 channels
Channel layout                           : L R
Sampling rate                            : 44.1 kHz
Frame rate                               : 43.066 FPS (1024 SPF)
Compression mode                         : Lossy
Delay relative to video                  : 13 ms
Stream size                              : 141 MiB (6%)
Default                                  : Yes
Forced                                   : No

Text
ID                                       : 3
Format                                   : UTF-8
Codec ID                                 : S_TEXT/UTF8
Codec ID/Info                            : UTF-8 Plain Text
Duration                                 : 1 h 41 min
Bit rate                                 : 116 b/s
Count of elements                        : 2251
Stream size                              : 86.8 KiB (0%)
Language                                 : English
Default                                  : Yes
Forced                                   : No