https://www.imdb.com/title/tt0066536/

General
Complete name                            : Le voyou (1970 Claude Lelouch).mkv
Format                                   : Matroska
Format version                           : Version 4
File size                                : 841 MiB
Duration                                 : 2 h 0 min
Overall bit rate                         : 976 kb/s
Encoded date                             : UTC 2020-04-21 19:29:48
Writing application                      : mkvmerge v41.0.0 ('Smarra') 64-bit
Writing library                          : libebml v1.3.9 + libmatroska v1.5.2

Video
ID                                       : 1
Format                                   : AVC
Format/Info                              : Advanced Video Codec
Format profile                           : [email protected]
Format settings                          : CABAC / 4 Ref Frames
Format settings, CABAC                   : Yes
Format settings, Reference frames        : 4 frames
Codec ID                                 : V_MPEG4/ISO/AVC
Duration                                 : 2 h 0 min
Bit rate                                 : 783 kb/s
Width                                    : 720 pixels
Height                                   : 400 pixels
Display aspect ratio                     : 16:10
Frame rate mode                          : Variable
Frame rate                               : 23.976 (23976/1000) FPS
Color space                              : YUV
Chroma subsampling                       : 4:2:0
Bit depth                                : 8 bits
Scan type                                : Progressive
Bits/(Pixel*Frame)                       : 0.113
Stream size                              : 674 MiB (80%)
Writing library                          : x264 core 112
Encoding settings                        : cabac=1 / ref=5 / deblock=1:0:0 / analyse=0x3:0x113 / me=hex / subme=7 / psy=1 / psy_rd=1.00:0.00 / mixed_ref=1 / me_range=16 / chroma_me=1 / trellis=1 / 8x8dct=1 / cqm=0 / deadzone=21,11 / fast_pskip=0 / chroma_qp_offset=-2 / threads=1 / sliced_threads=0 / nr=0 / decimate=0 / interlaced=0 / constrained_intra=0 / bframes=3 / b_pyramid=1 / b_adapt=1 / b_bias=0 / direct=1 / weightb=1 / open_gop=0 / weightp=2 / keyint=240 / keyint_min=23 / scenecut=40 / intra_refresh=0 / rc_lookahead=50 / rc=crf / mbtree=1 / crf=22.4 / qcomp=0.60 / qpmin=3 / qpmax=51 / qpstep=4 / ip_ratio=1.40 / aq=1:1.00
Language                                 : English
Default                                  : Yes
Forced                                   : No
Color range                              : Limited
Color primaries                          : BT.601 NTSC
Transfer characteristics                 : BT.709
Matrix coefficients                      : BT.601

Audio
ID                                       : 2
Format                                   : AC-3
Format/Info                              : Audio Coding 3
Commercial name                          : Dolby Digital
Codec ID                                 : A_AC3
Duration                                 : 2 h 0 min
Bit rate mode                            : Constant
Bit rate                                 : 192 kb/s
Channel(s)                               : 2 channels
Channel layout                           : L R
Sampling rate                            : 48.0 kHz
Frame rate                               : 31.250 FPS (1536 SPF)
Compression mode                         : Lossy
Stream size                              : 165 MiB (20%)
Language                                 : French
Service kind                             : Complete Main
Default                                  : Yes
Forced                                   : No

Text
ID                                       : 3
Format                                   : UTF-8
Codec ID                                 : S_TEXT/UTF8
Codec ID/Info                            : UTF-8 Plain Text
Duration                                 : 1 h 56 min
Bit rate                                 : 59 b/s
Count of elements                        : 1475
Stream size                              : 50.7 KiB (0%)
Language                                 : English
Default                                  : Yes
Forced                                   : No

Menu
00:00:00.000                             : en:Chapter 1
00:03:59.038                             : en:Chapter 2
00:07:51.771                             : en:Chapter 3
00:09:51.390                             : en:Chapter 4
00:13:20.099                             : en:Chapter 5
00:17:43.362                             : en:Chapter 6
00:20:26.024                             : en:Chapter 7
00:24:23.261                             : en:Chapter 8
00:27:56.474                             : en:Chapter 9
00:30:38.136                             : en:Chapter 10
00:39:36.257                             : en:Chapter 11
00:43:12.106                             : en:Chapter 12
00:51:12.586                             : en:Chapter 13
00:55:33.346                             : en:Chapter 14
01:03:47.840                             : en:Chapter 15
01:09:37.523                             : en:Chapter 16
01:16:57.462                             : en:Chapter 17
01:20:51.087                             : en:Chapter 18
01:25:52.981                             : en:Chapter 19
01:30:16.811                             : en:Chapter 20
01:37:27.208                             : en:Chapter 21
01:48:43.884                             : en:Chapter 22
01:54:03.536                             : en:Chapter 23
01:58:17.465                             : en:Chapter 24