https://www.imdb.com/title/tt0123179


Bah Humbug, Mr. Magoo!

This musical adaptation of the classic tale by Charles Dickens
stars Magoo as the cold-hearted old miser, Ebeneezer Scrooge.

Mr. Magoo's Christmas Carol was the first-ever animated 
holiday special created for television.

Jim Backus --- Mr. Magoo / Ebeneezer Scrooge

Jack Cassidy --- Bob Cratchit

Jane Kean --- Belle

Joan Gardner --- Tin Tim / Ghost Of Christmas Past

Songs by Jule Styne and Bob Merrill 

==================================================

General

Format                                   : Matroska
Format version                           : Version 2
File size                                : 745 MiB
Duration                                 : 52 min 15 s
Overall bit rate                         : 1 994 kb/s
Movie name                               : Mr Magoo Christmas Carol (1962).DVDRip.HEVC.AC3
Encoded date                             : UTC 2019-12-21 15:56:43
Writing application                      : DVDFab 11.0.0.5
Writing library                          : libebml v1.3.4 + libmatroska v1.4.5

Video
ID                                       : 1
Format                                   : HEVC
Format/Info                              : High Efficiency Video Coding
Format profile                           : [email protected]@Main
Codec ID                                 : V_MPEGH/ISO/HEVC
Duration                                 : 52 min 12 s
Bit rate                                 : 1 802 kb/s
Width                                    : 640 pixels
Height                                   : 480 pixels
Display aspect ratio                     : 4:3
Frame rate mode                          : Constant
Frame rate                               : 23.976 (24000/1001) FPS
Color space                              : YUV
Chroma subsampling                       : 4:2:0
Bit depth                                : 8 bits
Bits/(Pixel*Frame)                       : 0.245
Stream size                              : 673 MiB (90%)
Default                                  : Yes
Forced                                   : No
Color range                              : Limited
Color primaries                          : BT.601 NTSC
Transfer characteristics                 : BT.709
Matrix coefficients                      : BT.601

Audio
ID                                       : 2
Format                                   : AC-3
Format/Info                              : Audio Coding 3
Commercial name                          : Dolby Digital
Codec ID                                 : A_AC3
Duration                                 : 52 min 15 s
Bit rate mode                            : Constant
Bit rate                                 : 192 kb/s
Channel(s)                               : 2 channels
Channel layout                           : L R
Sampling rate                            : 48.0 kHz
Frame rate                               : 31.250 FPS (1536 SPF)
Bit depth                                : 16 bits
Compression mode                         : Lossy
Stream size                              : 71.8 MiB (10%)
Language                                 : English
Service kind                             : Complete Main
Default                                  : Yes
Forced                                   : No

Menu
00:00:00.000                             : en:(01)00:00:00:000
00:03:28.566                             : en:(02)00:03:28:566
00:10:46.599                             : en:(03)00:10:46:599
00:20:41.399                             : en:(04)00:20:41:399
00:28:40.565                             : en:(05)00:28:40:565
00:40:50.665                             : en:(06)00:40:50:665
00:52:12.131                             : en:(07)00:52:12:131