General
Unique ID                      : 55383742547296342194246377600335734004 (0x29AA85547C77C507AA32D3DCE827E4F4)
Complete name                  : The.Humanist.2001.DVDRiP.x264.BMTeam.mkv
Format                         : Matroska
Format version                 : Version 4 / Version 2
File size                      : 2.30 GiB
Duration                       : 1 h 39 min
Overall bit rate               : 3 301 kb/s
Encoded date                   : UTC 2018-07-18T08:03:11Z
Writing application            : HandBrake 1.1.0 2018040700
Writing library                : Lavf57.7.2

Video
ID                             : 1
Format                         : AVC
Format/Info                    : Advanced Video Codec
Format profile                 : [email protected]
Format settings                : CABAC / 16 Ref Frames
Format settings, CABAC         : Yes
Format settings, ReFrames      : 16 frames
Codec ID                       : V_MPEG4/ISO/AVC
Duration                       : 1 h 39 min
Bit rate                       : 2 851 kb/s
Width                          : 720 pixels
Height                         : 480 pixels
Display aspect ratio           : 16:9
Frame rate mode                : Constant
Frame rate                     : 29.970 (30000/1001) FPS
Standard                       : NTSC
Color space                    : YUV
Chroma subsampling             : 4:2:0
Bit depth                      : 8 bits
Scan type                      : Progressive
Bits/(Pixel*Frame)             : 0.275
Stream size                    : 1.99 GiB (86%)
Writing library                : x264 core 155 r2893 b00bcaf
Encoding settings              : cabac=1 / ref=16 / deblock=1:-1:-1 / analyse=0x3:0x133 / me=umh / subme=10 / psy=1 / psy_rd=1.00:0.15 / mixed_ref=1 / me_range=24 / chroma_me=1 / trellis=2 / 8x8dct=1 / cqm=0 / deadzone=21,11 / fast_pskip=1 / chroma_qp_offset=-3 / threads=15 / lookahead_threads=2 / sliced_threads=0 / nr=0 / decimate=1 / interlaced=0 / bluray_compat=0 / constrained_intra=0 / bframes=8 / b_pyramid=2 / b_adapt=2 / b_bias=0 / direct=3 / weightb=1 / open_gop=0 / weightp=2 / keyint=300 / keyint_min=30 / scenecut=40 / intra_refresh=0 / rc_lookahead=60 / rc=crf / mbtree=1 / crf=17.0 / qcomp=0.60 / qpmin=0 / qpmax=69 / qpstep=4 / vbv_maxrate=62500 / vbv_bufsize=78125 / crf_max=0.0 / nal_hrd=none / filler=0 / ip_ratio=1.40 / aq=1:1.00
Default                        : Yes
Forced                         : No
Color range                    : Limited
Color primaries                : BT.601 NTSC
Transfer characteristics       : BT.709
Matrix coefficients            : BT.601

Audio
ID                             : 2
Format                         : AC-3
Format/Info                    : Audio Coding 3
Codec ID                       : A_AC3
Duration                       : 1 h 39 min
Bit rate mode                  : Constant
Bit rate                       : 384 kb/s
Channel(s)                     : 6 channels
Channel positions              : Front: L C R, Side: L R, LFE
Sampling rate                  : 48.0 kHz
Frame rate                     : 31.250 FPS (1536 SPF)
Bit depth                      : 16 bits
Compression mode               : Lossy
Delay relative to video        : -33 ms
Stream size                    : 275 MiB (12%)
Title                          : Surround
Language                       : Korean
Service kind                   : Complete Main
Default                        : Yes
Forced                         : No

Text
ID                             : 3
Format                         : VobSub
Codec ID                       : S_VOBSUB
Codec ID/Info                  : Picture based subtitle format used on DVDs
Language                       : English
Default                        : No
Forced                         : No

Menu
00:00:00.033                   : :Chapter 1
00:08:09.622                   : :Chapter 2
00:16:31.807                   : :Chapter 3
00:26:07.464                   : :Chapter 4
00:35:24.737                   : :Chapter 5
00:44:20.841                   : :Chapter 6
00:54:35.171                   : :Chapter 7
01:03:26.769                   : :Chapter 8
01:09:38.590                   : :Chapter 9
01:19:27.060                   : :Chapter 10
01:29:14.029                   : :Chapter 11
01:37:47.107                   : :Chapter 12