General
Unique ID                      : 332596676997799317650461015647113715691 (0xFA37CA3B0A2D2111C4256EEB91241FEB)
Complete name                  : A.Bizarre.Love.Triangle.2002.DVDRiP.x264.BMTeam.mkv
Format                         : Matroska
Format version                 : Version 4 / Version 2
File size                      : 1.53 GiB
Duration                       : 1 h 33 min
Overall bit rate               : 2 345 kb/s
Encoded date                   : UTC 2018-07-18T02:50:23Z
Writing application            : HandBrake 1.1.0 2018040700
Writing library                : Lavf57.7.2

Video
ID                             : 1
Format                         : AVC
Format/Info                    : Advanced Video Codec
Format profile                 : [email protected]
Format settings                : CABAC / 16 Ref Frames
Format settings, CABAC         : Yes
Format settings, ReFrames      : 16 frames
Codec ID                       : V_MPEG4/ISO/AVC
Duration                       : 1 h 33 min
Bit rate                       : 2 107 kb/s
Width                          : 710 pixels
Height                         : 478 pixels
Display aspect ratio           : 16:9
Original display aspect ratio  : 16:9
Frame rate mode                : Constant
Frame rate                     : 29.970 (30000/1001) FPS
Color space                    : YUV
Chroma subsampling             : 4:2:0
Bit depth                      : 8 bits
Scan type                      : Progressive
Bits/(Pixel*Frame)             : 0.207
Stream size                    : 1.37 GiB (90%)
Writing library                : x264 core 155 r2893 b00bcaf
Encoding settings              : cabac=1 / ref=16 / deblock=1:-1:-1 / analyse=0x3:0x133 / me=umh / subme=10 / psy=1 / psy_rd=1.00:0.15 / mixed_ref=1 / me_range=24 / chroma_me=1 / trellis=2 / 8x8dct=1 / cqm=0 / deadzone=21,11 / fast_pskip=1 / chroma_qp_offset=-3 / threads=15 / lookahead_threads=2 / sliced_threads=0 / nr=0 / decimate=1 / interlaced=0 / bluray_compat=0 / constrained_intra=0 / bframes=8 / b_pyramid=2 / b_adapt=2 / b_bias=0 / direct=3 / weightb=1 / open_gop=0 / weightp=2 / keyint=300 / keyint_min=30 / scenecut=40 / intra_refresh=0 / rc_lookahead=60 / rc=crf / mbtree=1 / crf=18.0 / qcomp=0.60 / qpmin=0 / qpmax=69 / qpstep=4 / vbv_maxrate=62500 / vbv_bufsize=78125 / crf_max=0.0 / nal_hrd=none / filler=0 / ip_ratio=1.40 / aq=1:1.00
Default                        : Yes
Forced                         : No
Color range                    : Limited
Color primaries                : BT.601 NTSC
Transfer characteristics       : BT.709
Matrix coefficients            : BT.601

Audio
ID                             : 2
Format                         : AC-3
Format/Info                    : Audio Coding 3
Codec ID                       : A_AC3
Duration                       : 1 h 33 min
Bit rate mode                  : Constant
Bit rate                       : 192 kb/s
Channel(s)                     : 2 channels
Channel positions              : Front: L R
Sampling rate                  : 48.0 kHz
Frame rate                     : 31.250 FPS (1536 SPF)
Bit depth                      : 16 bits
Compression mode               : Lossy
Delay relative to video        : -67 ms
Stream size                    : 128 MiB (8%)
Title                          : Stereo
Language                       : Korean
Service kind                   : Complete Main
Default                        : Yes
Forced                         : No

Text #1
ID                             : 3
Format                         : VobSub
Codec ID                       : S_VOBSUB
Codec ID/Info                  : Picture based subtitle format used on DVDs
Language                       : English
Default                        : No
Forced                         : No

Text #2
ID                             : 4
Format                         : VobSub
Codec ID                       : S_VOBSUB
Codec ID/Info                  : Picture based subtitle format used on DVDs
Language                       : English
Default                        : No
Forced                         : No

Menu
00:00:00.067                   : :Chapter 1
00:07:44.731                   : :Chapter 2
00:15:25.191                   : :Chapter 3
00:23:23.469                   : :Chapter 4
00:31:13.338                   : :Chapter 5
00:39:06.311                   : :Chapter 6
00:45:39.503                   : :Chapter 7
00:54:03.507                   : :Chapter 8
01:02:05.889                   : :Chapter 9
01:09:17.020                   : :Chapter 10
01:16:18.641                   : :Chapter 11
01:24:51.753                   : :Chapter 12