General
Unique ID                                : 5784984717224182187333758440240363058 (0x45A25C47DD367117726A048AB1CB632)
Complete name                            : 18043008.mkv
Format                                   : Matroska
Format version                           : Version 4 / Version 2
File size                                : 2.77 GiB
Duration                                 : 55mn 32s
Overall bit rate                         : 7 150 Kbps
Encoded date                             : UTC 2018-06-11 01:04:42
Writing application                      : mkvmerge v23.0.0 ('The Bride Said No') 64-bit
Writing library                          : libebml v1.3.6 + libmatroska v1.4.9

Video
ID                                       : 1
Format                                   : AVC
Format/Info                              : Advanced Video Codec
Format profile                           : [email protected]
Format settings, CABAC                   : Yes
Format settings, ReFrames                : 4 frames
Codec ID                                 : V_MPEG4/ISO/AVC
Duration                                 : 55mn 32s
Bit rate                                 : 6 508 Kbps
Width                                    : 1 920 pixels
Height                                   : 1 080 pixels
Display aspect ratio                     : 16:9
Frame rate mode                          : Constant
Frame rate                               : 23.976 (24000/1001) fps
Color space                              : YUV
Chroma subsampling                       : 4:2:0
Bit depth                                : 8 bits
Scan type                                : Progressive
Bits/(Pixel*Frame)                       : 0.131
Stream size                              : 2.52 GiB (91%)
Default                                  : Yes
Forced                                   : No
Color range                              : Limited
Color primaries                          : BT.709
Transfer characteristics                 : BT.709
Matrix coefficients                      : BT.709

Audio
ID                                       : 2
Format                                   : E-AC-3
Format/Info                              : Audio Coding 3
Format settings, Endianness              : Big
Codec ID                                 : A_EAC3
Duration                                 : 55mn 32s
Bit rate mode                            : Constant
Bit rate                                 : 640 Kbps
Channel(s)                               : 6 channels
Channel positions                        : Front: L C R, Side: L R, LFE
Sampling rate                            : 48.0 KHz
Frame rate                               : 187.500 fps (256 spf)
Compression mode                         : Lossy
Stream size                              : 254 MiB (9%)
Language                                 : English
Default                                  : Yes
Forced                                   : No

Text #1
ID                                       : 3
Format                                   : UTF-8
Codec ID                                 : S_TEXT/UTF8
Codec ID/Info                            : UTF-8 Plain Text
Duration                                 : 55mn 21s
Bit rate                                 : 87 bps
Count of elements                        : 1223
Stream size                              : 35.5 KiB (0%)
Language                                 : English
Default                                  : No
Forced                                   : No

Text #2
ID                                       : 4
Format                                   : UTF-8
Codec ID                                 : S_TEXT/UTF8
Codec ID/Info                            : UTF-8 Plain Text
Duration                                 : 55mn 21s
Bit rate                                 : 91 bps
Count of elements                        : 1276
Stream size                              : 36.9 KiB (0%)
Language                                 : English
Default                                  : No
Forced                                   : No

Menu
00:00:00.000                             : en:Studio Logo
00:00:04.000                             : en:Previously On
00:01:21.000                             : en:Title Sequence
00:01:37.000                             : en:Bobby, Wendy and Wags attend the Spartan Ives event
00:03:16.000                             : en:Taylor impresses Grigor
00:06:50.000                             : en:Chuck and Alvin plan to destroy Jock
00:10:31.000                             : en:Taylor and Bobby promote Axe Capital to investors
00:13:03.000                             : en:Bobby throws a party
00:16:28.000                             : en:Chuck Sr motivates his son to go behind Jock
00:18:07.000                             : en:Bobby, Wendy and Wags learn about Taylor's plan
00:23:41.000                             : en:Grigor calls Bobby to discuss about his business and control the pests
00:27:35.000                             : en:Taylor confronts Bobby
00:31:27.000                             : en:Jock asks favor from Chuck and he tells his conditions
00:34:23.000                             : en:Bobby feels bad about the betrayal
00:35:42.000                             : en:Chuck tells the plan to Jock
00:37:01.000                             : en:Taylor offers a job to Wendy
00:40:05.000                             : en:Grigor pulls out his funds
00:44:27.000                             : en:Shocker for Chuck
00:49:31.000                             : en:Bobby goes to Chuck's home
00:54:38.000                             : en:End Credits