26/08/2017

================================================================================
http://www.allocine.fr/film/fichefilm_gen_cfilm=233909.html
*                                                                              *

Date de sortie 6 juin 2017 en VOD (1h 29min)
De Joe Syracuse, Lisa Addario
Avec Jason Biggs, Ashley Tisdale, Janet Montgomery plus
Genre Comedie
Nationalite americain
*                                                                              *
Un chomeur accepte de devenir chauffeur pour prostituees, mais sa vie va basculer
 en une nuit. 

================================================================================
*                        Fichiers contenus dans le post                        *
================================================================================

--------------------------------------------------------------------------------
Amateur.Night.2016.F.DVDRip.Xvid.boheme \
--------------------------------------------------------------------------------
Amateur.Night.2016.F.DVDRip.Xvid.boheme.avi                             01:29:19

Duree................: 01:29:19
Taille des fichiers..: 701.77 Mo


--------------------------------------------------------------------------------
Amateur.Night.2016.F.DVDRip.Xvid.boheme \Amateur.Night.2016.F.DVDRip.Xvid.boheme
--------------------------------------------------------------------------------
Amateur.Night.2016.F.DVDRip.Xvid.boheme.nfo

Taille des fichiers..: 0 Octets

================================================================================
*Duree totale du post .........: 01:29:19                                      *
*Taille totale du post ........: 701.77 Mo                                     *
================================================================================

================================================================================
*                 Amateur.Night.2016.F.DVDRip.Xvid.boheme.avi                  *
================================================================================
*Format                        : MPEG-4                                        *
*Format profile                : Base Media / Version 2                        *
*Codec ID                      : mp42                                          *
*File size                     : 702 MiB                                       *
*Duration                      : 1h 29mn                                       *
*Overall bit rate              : 1 098 Kbps                                    *
*Encoded date                  : UTC 2017-08-12 18:32:40                       *
*Tagged date                   : UTC 2017-08-12 18:32:40                       *
*Writing application           : HandBrake 1.0.7 2017040900                    *
*=================================== Video ====================================*
*ID                            : 1                                             *
*Format                        : AVC                                           *
*Format/Info                   : Advanced Video Codec                          *
*Format profile                : [email protected]                                     *
*Format settings, CABAC        : Yes                                           *
*Format settings, ReFrames     : 4 frames                                      *
*Codec ID                      : avc1                                          *
*Codec ID/Info                 : Advanced Video Coding                         *
*Duration                      : 1h 29mn                                       *
*Bit rate                      : 970 Kbps                                      *
*Width                         : 640 pixels                                    *
*Height                        : 272 pixels                                    *
*Display aspect ratio          : 2.35:1                                        *
*Frame rate mode               : Constant                                      *
*Frame rate                    : 25.000 fps                                    *
*Color space                   : YUV                                           *
*Chroma subsampling            : 4:2:0                                         *
*Bit depth                     : 8 bits                                        *
*Scan type                     : Progressive                                   *
*Bits/(Pixel*Frame)            : 0.223                                         *
*Stream size                   : 617 MiB (88%)                                 *
*Writing library               : x264 core 148 r2708 86b7198                   *
*Encoded date                  : UTC 2017-08-12 18:32:40                       *
*Tagged date                   : UTC 2017-08-12 18:32:40                       *
*Color primaries               : BT.709-5, BT.1361, IEC 61966-2-4, SMPTE RP177 *
*Transfer characteristics      : BT.709-5, BT.1361                             *
*Matrix coefficients           : BT.709-5, BT.1361, IEC 61966-2-4 709, SMPTE RP*
*================================== Audio #1 ==================================*
*ID                            : 2                                             *
*Format                        : MPEG Audio                                    *
*Format version                : Version 1                                     *
*Format profile                : Layer 3                                       *
*Mode                          : Joint stereo                                  *
*Mode extension                : MS Stereo                                     *
*Codec ID                      : 6B                                            *
*Duration                      : 1h 29mn                                       *
*Bit rate mode                 : Constant                                      *
*Bit rate                      : 128 Kbps                                      *
*Channel(s)                    : 2 channels                                    *
*Sampling rate                 : 48.0 KHz                                      *
*Compression mode              : Lossy                                         *
*Delay relative to video       : -7s 200ms                                     *
*Stream size                   : 81.8 MiB (12%)                                *
*Title                         : Stereo                                        *
*Writing library               : LAME3.98                                      *
*Language                      : French                                        *
*Encoded date                  : UTC 2017-08-12 18:32:40                       *
*Tagged date                   : UTC 2017-08-12 18:32:40                       *
*================================== Texte #1 ==================================*
*ID                            : 3                                             *
*Format                        : Apple text                                    *
*Codec ID                      : text                                          *
*Duration                      : 1h 29mn                                       *
*Bit rate mode                 : Constant                                      *
*Bit rate                      : 0 bps                                         *
*Delay relative to video       : -7s 200ms                                     *
*Stream size                   : 135 Bytes (0%)                                *
*Language                      : English                                       *
*Encoded date                  : UTC 2017-08-12 18:32:40                       *
*Tagged date                   : UTC 2017-08-12 18:32:40                       *

================================================================================

pw : catalina