26/08/2017

================================================================================
http://www.allocine.fr/film/fichefilm_gen_cfilm=240369.html
*                                                                              *

Date de sortie 23 mars 2017 en e-Cinema (1h 35min)
De Walter Hill
Avec Michelle Rodriguez, Sigourney Weaver, Tony Shalhoub plus
Genres Action, Thriller
Nationalite americain
*                                                                              *
Une chirurgienne brillante et manipulatrice decide de se venger du meurtre de 
son frere. Elle est prete a tout pour retrouver le tueur et lui faire payer son 
crimeà.au-dela de lÆimaginable.
Frank Kitchen est un tueur sans pitie qui pourchasse ses proies et les abat 
froidement pour executer ses contrats. Mais cette fois ci, le contrat, cÆest lui. 
Un contrat motive par un puissant desir de vengeance qui doit le mener sur le 
chemin de la redemption. Apres s'etre fait kidnapper, Frank se reveille avec un 
nouveau visage... 
Comprenant quÆil est lÆobjet dÆune terrible manipulation, cÆest a son tour de 
mettre en oeuvre sa vengeance : elle sera redoutable ! 

================================================================================
*                        Fichiers contenus dans le post                        *
================================================================================

--------------------------------------------------------------------------------
The.Assignment.2016.FR.BDRip.XviD.boheme \
--------------------------------------------------------------------------------
The.Assignment.2016.FR.BDRip.XviD.boheme.avi                            01:34:11

Duree................: 01:34:11
Taille des fichiers..: 695.23 Mo


--------------------------------------------------------------------------------
The.Assignment.2016.FR.BDRip.XviD.boheme \The.Assignment.2016.FR.BDRip.XviD.bohe
me
--------------------------------------------------------------------------------
The.Assignment.2016.FR.BDRip.XviD.boheme.nfo

Taille des fichiers..: 0 Octets

================================================================================
*Duree totale du post .........: 01:34:11                                      *
*Taille totale du post ........: 695.23 Mo                                     *
================================================================================

================================================================================
*                 The.Assignment.2016.FR.BDRip.XviD.boheme.avi                 *
================================================================================
*Format                        : AVI                                           *
*Format/Info                   : Audio Video Interleave                        *
*File size                     : 695 MiB                                       *
*Duration                      : 1h 34mn                                       *
*Overall bit rate              : 1 032 Kbps                                    *
*=================================== Video ====================================*
*ID                            : 0                                             *
*Format                        : MPEG-4 Visual                                 *
*Format profile                : Advanced [email protected]                            *
*Format settings, BVOP         : 1                                             *
*Format settings, QPel         : No                                            *
*Format settings, GMC          : No warppoints                                 *
*Format settings, Matrix       : Default (H.263)                               *
*Codec ID                      : XVID                                          *
*Codec ID/Hint                 : XviD                                          *
*Duration                      : 1h 34mn                                       *
*Bit rate                      : 898 Kbps                                      *
*Width                         : 720 pixels                                    *
*Height                        : 304 pixels                                    *
*Display aspect ratio          : 2.35:1                                        *
*Frame rate                    : 23.976 fps                                    *
*Color space                   : YUV                                           *
*Chroma subsampling            : 4:2:0                                         *
*Bit depth                     : 8 bits                                        *
*Scan type                     : Progressive                                   *
*Compression mode              : Lossy                                         *
*Bits/(Pixel*Frame)            : 0.171                                         *
*Stream size                   : 605 MiB (87%)                                 *
*Writing library               : XviD 67                                       *
*================================== Audio #1 ==================================*
*ID                            : 1                                             *
*Format                        : MPEG Audio                                    *
*Format version                : Version 1                                     *
*Format profile                : Layer 3                                       *
*Mode                          : Joint stereo                                  *
*Mode extension                : MS Stereo                                     *
*Codec ID                      : 55                                            *
*Codec ID/Hint                 : MP3                                           *
*Duration                      : 1h 34mn                                       *
*Bit rate mode                 : Constant                                      *
*Bit rate                      : 128 Kbps                                      *
*Channel(s)                    : 2 channels                                    *
*Sampling rate                 : 48.0 KHz                                      *
*Compression mode              : Lossy                                         *
*Stream size                   : 86.2 MiB (12%)                                *
*Alignment                     : Aligned on interleaves                        *
*Interleave, duration          : 167 ms (4.00 video frames)                    *
*Interleave, preload duration  : 216 ms                                        *
*Title                         : m                                             *
*Writing library               : LAME3.99r                                     *

===============================================================================

pw : catalina