General
Unique ID                                : 183001396309161208835092765702211472021 (0x89ACC97262EF58BCBD846F754DD38A95)
Complete name                            : Salvation.S01E06.Chip.Off.the.Ol.Block.1080p.AMZN.WEB-DL.DDP5.1.H.264-NTb.mkv
Format                                   : Matroska
Format version                           : Version 4 / Version 2
File size                                : 2.37 GiB
Duration                                 : 43mn 39s
Overall bit rate mode                    : Variable
Overall bit rate                         : 7 778 Kbps
Encoded date                             : UTC 2017-08-13 08:09:05
Writing application                      : mkvmerge v10.0.0 ('To Drown In You') 64bit
Writing library                          : libebml v1.3.4 + libmatroska v1.4.5

Video
ID                                       : 1
Format                                   : AVC
Format/Info                              : Advanced Video Codec
Format profile                           : [email protected]
Format settings, CABAC                   : Yes
Format settings, ReFrames                : 4 frames
Codec ID                                 : V_MPEG4/ISO/AVC
Duration                                 : 43mn 39s
Bit rate mode                            : Variable
Bit rate                                 : 7 136 Kbps
Maximum bit rate                         : 15.0 Mbps
Width                                    : 1 920 pixels
Height                                   : 1 080 pixels
Display aspect ratio                     : 16:9
Frame rate mode                          : Constant
Frame rate                               : 23.976 (24000/1001) fps
Color space                              : YUV
Chroma subsampling                       : 4:2:0
Bit depth                                : 8 bits
Scan type                                : Progressive
Bits/(Pixel*Frame)                       : 0.144
Stream size                              : 2.18 GiB (92%)
Default                                  : Yes
Forced                                   : No
Color range                              : Limited
Color primaries                          : BT.709
Transfer characteristics                 : BT.709
Matrix coefficients                      : BT.709

Audio
ID                                       : 2
Format                                   : E-AC-3
Format/Info                              : Audio Coding 3
Format settings, Endianness              : Big
Codec ID                                 : A_EAC3
Duration                                 : 43mn 39s
Bit rate mode                            : Constant
Bit rate                                 : 640 Kbps
Channel(s)                               : 6 channels
Channel positions                        : Front: L C R, Side: L R, LFE
Sampling rate                            : 48.0 KHz
Frame rate                               : 187.500 fps (256 spf)
Compression mode                         : Lossy
Stream size                              : 200 MiB (8%)
Language                                 : English
Default                                  : Yes
Forced                                   : No

Text
ID                                       : 3
Format                                   : UTF-8
Codec ID                                 : S_TEXT/UTF8
Codec ID/Info                            : UTF-8 Plain Text
Duration                                 : 43mn 3s
Bit rate                                 : 83 bps
Count of elements                        : 939
Stream size                              : 26.3 KiB (0%)
Language                                 : English
Default                                  : No
Forced                                   : No

Menu
00:00:00.000                             : en:Previously On
00:01:10.000                             : en:Liam wakes up from a nightmare
00:05:51.000                             : en:Diplomatic channels
00:07:30.000                             : en:Grace reaches out
00:10:32.000                             : en:Title Sequence
00:10:45.000                             : en:London
00:13:20.000                             : en:Lunch date
00:17:58.000                             : en:Grace has dinner with her family
00:22:02.000                             : en:Jillian looks through Liam's things
00:23:14.000                             : en:A chip off the ol' block
00:25:38.000                             : en:fallout
00:27:03.000                             : en:Liam steps up
00:29:04.000                             : en:Grace asks a favor
00:31:13.000                             : en:Assault
00:38:28.000                             : en:Extraction
00:42:12.000                             : en:Russia escalates
00:43:12.000                             : en:End Credits