General
Unique ID                                : 225219208934631973078649568472432998679 (0xA96FA450888932EDB254D7C1F6417917)
Complete name                            : Salvation.S01E04E05.The.Human.Strain.Keeping.the.Faith.1080p.AMZN.WEB-DL.DDP5.1.H.264-NTb.mkv
Format                                   : Matroska
Format version                           : Version 4 / Version 2
File size                                : 5.02 GiB
Duration                                 : 1h 21mn
Overall bit rate mode                    : Variable
Overall bit rate                         : 8 793 Kbps
Encoded date                             : UTC 2017-08-06 14:05:55
Writing application                      : mkvmerge v10.0.0 ('To Drown In You') 64bit
Writing library                          : libebml v1.3.4 + libmatroska v1.4.5

Video
ID                                       : 1
Format                                   : AVC
Format/Info                              : Advanced Video Codec
Format profile                           : [email protected]
Format settings, CABAC                   : Yes
Format settings, ReFrames                : 4 frames
Codec ID                                 : V_MPEG4/ISO/AVC
Duration                                 : 1h 21mn
Bit rate mode                            : Variable
Bit rate                                 : 8 151 Kbps
Maximum bit rate                         : 15.0 Mbps
Width                                    : 1 920 pixels
Height                                   : 1 080 pixels
Display aspect ratio                     : 16:9
Frame rate mode                          : Constant
Frame rate                               : 23.976 (24000/1001) fps
Color space                              : YUV
Chroma subsampling                       : 4:2:0
Bit depth                                : 8 bits
Scan type                                : Progressive
Bits/(Pixel*Frame)                       : 0.164
Stream size                              : 4.65 GiB (93%)
Default                                  : Yes
Forced                                   : No
Color range                              : Limited
Color primaries                          : BT.709
Transfer characteristics                 : BT.709
Matrix coefficients                      : BT.709

Audio
ID                                       : 2
Format                                   : E-AC-3
Format/Info                              : Audio Coding 3
Format settings, Endianness              : Big
Codec ID                                 : A_EAC3
Duration                                 : 1h 21mn
Bit rate mode                            : Constant
Bit rate                                 : 640 Kbps
Channel(s)                               : 6 channels
Channel positions                        : Front: L C R, Side: L R, LFE
Sampling rate                            : 48.0 KHz
Frame rate                               : 187.500 fps (256 spf)
Compression mode                         : Lossy
Stream size                              : 374 MiB (7%)
Language                                 : English
Default                                  : Yes
Forced                                   : No

Text
ID                                       : 3
Format                                   : UTF-8
Codec ID                                 : S_TEXT/UTF8
Codec ID/Info                            : UTF-8 Plain Text
Duration                                 : 1h 20mn
Bit rate                                 : 81 bps
Count of elements                        : 1642
Stream size                              : 48.0 KiB (0%)
Language                                 : English
Default                                  : No
Forced                                   : No

Menu
00:00:00.000                             : en:Previously On
00:01:16.000                             : en:Darius buys more art
00:05:12.000                             : en:Harris finds Darius
00:07:54.000                             : en:Title Sequence
00:08:04.000                             : en:Darius refuses to cooperate
00:11:00.000                             : en:Darius speaks to Grace
00:15:34.000                             : en:Grace looks for Salvation
00:17:31.000                             : en:Salvation
00:23:32.000                             : en:Nero vs. Noah
00:25:56.000                             : en:Lazlo cooperates and Darius does not
00:29:31.000                             : en:Grace saves Darius
00:35:33.000                             : en:Darius defends Lazlo
00:39:03.000                             : en:Thrust
00:41:22.000                             : en:Darius goes on the offensive
00:44:52.000                             : en:Grace asks Darius for answers
00:48:17.000                             : en:Flat tire
00:50:43.000                             : en:Liam talks too much
00:52:54.000                             : en:Darius takes Grace to a safe house
00:56:04.000                             : en:Darius finds a lead
00:57:57.000                             : en:Harris reaches out to the ambassador of India, Tess finds the mole
01:02:14.000                             : en:Croft tells Liam about his glasses
01:04:57.000                             : en:Amanda receives her phone call
01:06:23.000                             : en:Darius comes back to the Pentagon
01:07:07.000                             : en:Jillian starts to worry about Liam
01:08:56.000                             : en:Croft and Liam face off
01:10:21.000                             : en:Jillian and Amanda decide to get a drink
01:11:07.000                             : en:Harris finds Liam
01:13:46.000                             : en:Amanda and Jillian hang out
01:17:16.000                             : en:Liam returns
01:20:58.000                             : en:End Credits