General
Unique ID                                : 195938249911770959475420970760584877214 (0x9368559315CAEC4BAE166E69CF68D49E)
Complete name                            : Being.Mary.Jane.S04E14.Feeling.Friendless.1080p.BET.WEB-DL.AAC2.0.x264-RTN.mkv
Format                                   : Matroska
Format version                           : Version 4 / Version 2
File size                                : 1.36 GiB
Duration                                 : 40mn 53s
Overall bit rate                         : 4 755 Kbps
Encoded date                             : UTC 2017-08-10 04:21:07
Writing application                      : mkvmerge v9.5.0 ('Quiet Fire') 32bit
Writing library                          : libebml v1.3.4 + libmatroska v1.4.5

Video
ID                                       : 1
Format                                   : AVC
Format/Info                              : Advanced Video Codec
Format profile                           : [email protected]
Format settings, CABAC                   : Yes
Format settings, ReFrames                : 4 frames
Codec ID                                 : V_MPEG4/ISO/AVC
Duration                                 : 40mn 53s
Bit rate                                 : 4 624 Kbps
Width                                    : 1 920 pixels
Height                                   : 1 080 pixels
Display aspect ratio                     : 16:9
Frame rate mode                          : Variable
Frame rate                               : 23.976 (23976/1000) fps
Color space                              : YUV
Chroma subsampling                       : 4:2:0
Bit depth                                : 8 bits
Scan type                                : Progressive
Bits/(Pixel*Frame)                       : 0.093
Stream size                              : 1.32 GiB (97%)
Writing library                          : x264 core 148
Encoding settings                        : cabac=1 / ref=4 / deblock=1:0:0 / analyse=0x3:0x113 / me=umh / subme=10 / psy=1 / psy_rd=1.00:0.15 / mixed_ref=1 / me_range=32 / chroma_me=1 / trellis=2 / 8x8dct=1 / cqm=0 / deadzone=21,11 / fast_pskip=1 / chroma_qp_offset=-3 / threads=24 / lookahead_threads=6 / sliced_threads=0 / nr=0 / decimate=1 / interlaced=0 / bluray_compat=0 / constrained_intra=0 / bframes=3 / b_pyramid=0 / b_adapt=2 / b_bias=0 / direct=3 / weightb=1 / open_gop=0 / weightp=2 / keyint=48 / keyint_min=4 / scenecut=0 / intra_refresh=0 / rc_lookahead=48 / rc=crf / mbtree=1 / crf=19.0 / qcomp=0.75 / qpmin=10 / qpmax=51 / qpstep=4 / vbv_maxrate=5000 / vbv_bufsize=10000 / crf_max=0.0 / nal_hrd=none / filler=0 / ip_ratio=1.40 / aq=1:0.80
Default                                  : Yes
Forced                                   : No

Audio
ID                                       : 2
Format                                   : AAC
Format/Info                              : Advanced Audio Codec
Format profile                           : LC
Codec ID                                 : A_AAC
Duration                                 : 40mn 53s
Bit rate                                 : 128 Kbps
Channel(s)                               : 2 channels
Channel positions                        : Front: L R
Sampling rate                            : 48.0 KHz
Frame rate                               : 46.875 fps (1024 spf)
Compression mode                         : Lossy
Delay relative to video                  : -41ms
Stream size                              : 37.4 MiB (3%)
Default                                  : Yes
Forced                                   : No

Text
ID                                       : 3
Format                                   : UTF-8
Codec ID                                 : S_TEXT/UTF8
Codec ID/Info                            : UTF-8 Plain Text
Duration                                 : 40mn 38s
Bit rate                                 : 102 bps
Count of elements                        : 965
Stream size                              : 30.6 KiB (0%)
Default                                  : No
Forced                                   : No

Menu
00:00:00.000                             : en:00:00:00.000
00:11:32.000                             : en:00:11:32.000
00:20:57.000                             : en:00:20:57.000
00:30:26.000                             : en:00:30:26.000
00:35:14.000                             : en:00:35:14.000
00:40:20.000                             : en:00:40:20.000