General
Unique ID                                : 210098422107723399656247745839274748074 (0x9E0F7BF730C336A9B09A10F64F2D68AA)
Complete name                            : Odd.Mom.Out.S03E04.Children.in.the.Corn.1080p.Amazon.WEB-DL.DD5.1.H.264-QOQ.mkv
Format                                   : Matroska
Format version                           : Version 4 / Version 2
File size                                : 2.15 GiB
Duration                                 : 21mn 33s
Overall bit rate mode                    : Variable
Overall bit rate                         : 14.3 Mbps
Encoded date                             : UTC 2017-08-03 21:31:48
Writing application                      : mkvmerge v13.0.0 ('The Juggler') 64bit
Writing library                          : libebml v1.3.4 + libmatroska v1.4.5

Video
ID                                       : 1
Format                                   : AVC
Format/Info                              : Advanced Video Codec
Format profile                           : [email protected]
Format settings, CABAC                   : Yes
Format settings, ReFrames                : 4 frames
Codec ID                                 : V_MPEG4/ISO/AVC
Duration                                 : 21mn 33s
Bit rate mode                            : Variable
Bit rate                                 : 13.6 Mbps
Maximum bit rate                         : 15.0 Mbps
Width                                    : 1 920 pixels
Height                                   : 1 080 pixels
Display aspect ratio                     : 16:9
Frame rate mode                          : Constant
Frame rate                               : 23.976 (24000/1001) fps
Color space                              : YUV
Chroma subsampling                       : 4:2:0
Bit depth                                : 8 bits
Scan type                                : Progressive
Bits/(Pixel*Frame)                       : 0.274
Stream size                              : 2.05 GiB (95%)
Default                                  : Yes
Forced                                   : No
Color range                              : Limited
Color primaries                          : BT.709
Transfer characteristics                 : BT.709
Matrix coefficients                      : BT.709

Audio
ID                                       : 2
Format                                   : E-AC-3
Format/Info                              : Audio Coding 3
Format settings, Endianness              : Big
Codec ID                                 : A_EAC3
Duration                                 : 21mn 33s
Bit rate mode                            : Constant
Bit rate                                 : 640 Kbps
Channel(s)                               : 6 channels
Channel positions                        : Front: L C R, Side: L R, LFE
Sampling rate                            : 48.0 KHz
Frame rate                               : 187.500 fps (256 spf)
Compression mode                         : Lossy
Stream size                              : 98.7 MiB (4%)
Language                                 : English
Default                                  : Yes
Forced                                   : No

Text
ID                                       : 3
Format                                   : UTF-8
Codec ID                                 : S_TEXT/UTF8
Codec ID/Info                            : UTF-8 Plain Text
Duration                                 : 21mn 19s
Bit rate                                 : 100 bps
Count of elements                        : 542
Stream size                              : 15.6 KiB (0%)
Language                                 : English
Default                                  : No
Forced                                   : No