General
Unique ID                                : 209271978575596297884472344896234164823 (0x9D7051274DF9D465AC65E0B1F0719257)
Complete name                            : Younger.S04E05.The.Gift.of.the.Maggie.720p.AMZN.WEB-DL.DDP2.0.H.264-KiNGS.mkv
Format                                   : Matroska
Format version                           : Version 4 / Version 2
File size                                : 662 MiB
Duration                                 : 25mn 23s
Overall bit rate mode                    : Variable
Overall bit rate                         : 3 647 Kbps
Encoded date                             : UTC 2017-07-28 13:18:32
Writing application                      : mkvmerge v13.0.0 ('The Juggler') 64bit
Writing library                          : libebml v1.3.4 + libmatroska v1.4.5

Video
ID                                       : 1
Format                                   : AVC
Format/Info                              : Advanced Video Codec
Format profile                           : [email protected]
Format settings, CABAC                   : Yes
Format settings, ReFrames                : 5 frames
Codec ID                                 : V_MPEG4/ISO/AVC
Duration                                 : 25mn 23s
Bit rate mode                            : Variable
Bit rate                                 : 3 421 Kbps
Maximum bit rate                         : 4 500 Kbps
Width                                    : 1 280 pixels
Height                                   : 720 pixels
Display aspect ratio                     : 16:9
Frame rate mode                          : Constant
Frame rate                               : 23.976 (24000/1001) fps
Color space                              : YUV
Chroma subsampling                       : 4:2:0
Bit depth                                : 8 bits
Scan type                                : Progressive
Bits/(Pixel*Frame)                       : 0.155
Stream size                              : 621 MiB (94%)
Default                                  : Yes
Forced                                   : No
Color range                              : Limited
Color primaries                          : BT.709
Transfer characteristics                 : BT.709
Matrix coefficients                      : BT.709

Audio
ID                                       : 2
Format                                   : E-AC-3
Format/Info                              : Audio Coding 3
Format settings, Endianness              : Big
Codec ID                                 : A_EAC3
Duration                                 : 25mn 23s
Bit rate mode                            : Constant
Bit rate                                 : 224 Kbps
Channel(s)                               : 2 channels
Channel positions                        : Front: L R
Sampling rate                            : 48.0 KHz
Frame rate                               : 187.500 fps (256 spf)
Compression mode                         : Lossy
Stream size                              : 40.7 MiB (6%)
Language                                 : English
Default                                  : Yes
Forced                                   : No

Text
ID                                       : 3
Format                                   : UTF-8
Codec ID                                 : S_TEXT/UTF8
Codec ID/Info                            : UTF-8 Plain Text
Duration                                 : 24mn 41s
Bit rate                                 : 97 bps
Count of elements                        : 632
Stream size                              : 17.7 KiB (0%)
Language                                 : English
Default                                  : No
Forced                                   : No