General
Unique ID                                : 195848944255361503575059160640664680796 (0x935722773AD5B2F6A564BD76927CB95C)
Complete name                            : The.Mindy.Project.S05E13.Mindys.Best.Friend.1080p.HULU.WEBRip.AAC2.0.H.264-RTN.mkv
Format                                   : Matroska
Format version                           : Version 4 / Version 2
File size                                : 919 MiB
Duration                                 : 23mn 7s
Overall bit rate                         : 5 554 Kbps
Encoded date                             : UTC 2017-03-22 11:49:39
Writing application                      : mkvmerge v9.9.0 ('Pick Up') 32bit
Writing library                          : libebml v1.3.4 + libmatroska v1.4.5

Video
ID                                       : 2
Format                                   : AVC
Format/Info                              : Advanced Video Codec
Format profile                           : [email protected]
Format settings, CABAC                   : Yes
Format settings, ReFrames                : 4 frames
Codec ID                                 : V_MPEG4/ISO/AVC
Duration                                 : 23mn 7s
Bit rate                                 : 5 488 Kbps
Width                                    : 1 920 pixels
Height                                   : 1 080 pixels
Display aspect ratio                     : 16:9
Frame rate mode                          : Constant
Frame rate                               : 23.976 (24000/1001) fps
Color space                              : YUV
Chroma subsampling                       : 4:2:0
Bit depth                                : 8 bits
Scan type                                : Progressive
Bits/(Pixel*Frame)                       : 0.110
Stream size                              : 908 MiB (99%)
Default                                  : Yes
Forced                                   : No

Audio
ID                                       : 3
Format                                   : AAC
Format/Info                              : Advanced Audio Codec
Format profile                           : HE-AAC / LC
Codec ID                                 : A_AAC
Duration                                 : 23mn 7s
Bit rate                                 : 64.0 Kbps
Channel(s)                               : 2 channels
Channel positions                        : Front: L R
Sampling rate                            : 48.0 KHz / 24.0 KHz
Frame rate                               : 23.438 fps (1024 spf)
Compression mode                         : Lossy
Stream size                              : 10.6 MiB (1%)
Language                                 : English
Default                                  : Yes
Forced                                   : No

Text
ID                                       : 1
Format                                   : UTF-8
Codec ID                                 : S_TEXT/UTF8
Codec ID/Info                            : UTF-8 Plain Text
Duration                                 : 22mn 15s
Bit rate                                 : 138 bps
Count of elements                        : 605
Stream size                              : 22.6 KiB (0%)
Language                                 : English
Default                                  : No
Forced                                   : No