General
Unique ID                                : 227134444224310085396170653048533744669 (0xAAE080B4714C50B6BCDC4A63F180FC1D)
Complete name                            : The.Mindy.Project.S05E09.Bat.Mitzvah.720p.HULU.WEBRip.AAC2.0.H.264-RTN.mkv
Format                                   : Matroska
Format version                           : Version 4 / Version 2
File size                                : 431 MiB
Duration                                 : 22mn 39s
Overall bit rate                         : 2 660 Kbps
Encoded date                             : UTC 2017-02-22 12:26:24
Writing application                      : mkvmerge v9.5.0 ('Quiet Fire') 32bit
Writing library                          : libebml v1.3.4 + libmatroska v1.4.5

Video
ID                                       : 2
Format                                   : AVC
Format/Info                              : Advanced Video Codec
Format profile                           : [email protected]
Format settings, CABAC                   : Yes
Format settings, ReFrames                : 5 frames
Codec ID                                 : V_MPEG4/ISO/AVC
Duration                                 : 22mn 39s
Bit rate                                 : 2 594 Kbps
Width                                    : 1 280 pixels
Height                                   : 720 pixels
Display aspect ratio                     : 16:9
Frame rate mode                          : Constant
Frame rate                               : 23.976 (24000/1001) fps
Color space                              : YUV
Chroma subsampling                       : 4:2:0
Bit depth                                : 8 bits
Scan type                                : Progressive
Bits/(Pixel*Frame)                       : 0.117
Stream size                              : 420 MiB (98%)
Default                                  : Yes
Forced                                   : No

Audio
ID                                       : 3
Format                                   : AAC
Format/Info                              : Advanced Audio Codec
Format profile                           : HE-AAC / LC
Codec ID                                 : A_AAC
Duration                                 : 22mn 39s
Bit rate                                 : 64.0 Kbps
Channel(s)                               : 2 channels
Channel positions                        : Front: L R
Sampling rate                            : 48.0 KHz / 24.0 KHz
Frame rate                               : 23.438 fps (1024 spf)
Compression mode                         : Lossy
Stream size                              : 10.4 MiB (2%)
Language                                 : English
Default                                  : Yes
Forced                                   : No

Text
ID                                       : 1
Format                                   : UTF-8
Codec ID                                 : S_TEXT/UTF8
Codec ID/Info                            : UTF-8 Plain Text
Duration                                 : 22mn 27s
Bit rate                                 : 139 bps
Count of elements                        : 568
Stream size                              : 23.0 KiB (0%)
Language                                 : English
Default                                  : No
Forced                                   : No