Disc Title:     SAMURAI_CHAMPLOO_D1
Disc Size:      42,791,940,315 bytes
Protection:     AACS
BD-Java:        No
BDInfo:         0.5.8

Notes:          

BDINFO HOME:
  Cinema Squid
    http://www.cinemasquid.com/blu-ray/tools/bdinfo

INCLUDES FORUMS REPORT FOR:
  AVS Forum Blu-ray Audio and Video Specifications Thread
    http://www.avsforum.com/avs-vb/showthread.php?t=1155731


********************
PLAYLIST: 00001.MPLS
********************

<--- BEGIN FORUMS PASTE --->
[code]
                                                                                                                Total   Video                                             
Title                                                           Codec   Length  Movie Size      Disc Size       Bitrate Bitrate Main Audio Track                          Secondary Audio Track
-----                                                           ------  ------- --------------  --------------  ------- ------- ------------------                        ---------------------
00001.MPLS                                                      AVC     3:30:17 42,149,081,088  42,791,940,315  26.72   18.99   Dolby TrueHD 5.1 1744Kbps (48kHz/16-bit)  
[/code]

[code]

DISC INFO:

Disc Title:     SAMURAI_CHAMPLOO_D1
Disc Size:      42,791,940,315 bytes
Protection:     AACS
BD-Java:        No
BDInfo:         0.5.8

PLAYLIST REPORT:

Name:                   00001.MPLS
Length:                 3:30:17.604 (h:m:s.ms)
Size:                   42,149,081,088 bytes
Total Bitrate:          26.72 Mbps

VIDEO:

Codec                   Bitrate             Description     
-----                   -------             -----------     
MPEG-4 AVC Video        18990 kbps          1080p / 23.976 fps / 16:9 / High Profile 4.1

AUDIO:

Codec                           Language        Bitrate         Description     
-----                           --------        -------         -----------     
Dolby TrueHD Audio              English         1744 kbps       5.1 / 48 kHz / 1744 kbps / 16-bit (AC3 Embedded: 5.1 / 48 kHz / 448 kbps / DN -9dB)
Dolby TrueHD Audio              Japanese        1744 kbps       5.1 / 48 kHz / 1744 kbps / 16-bit (AC3 Embedded: 5.1 / 48 kHz / 448 kbps / DN -9dB)

SUBTITLES:

Codec                           Language        Bitrate         Description     
-----                           --------        -------         -----------     
Presentation Graphics           English         39.578 kbps                     
Presentation Graphics           English         5.811 kbps                      

FILES:

Name            Time In         Length          Size            Total Bitrate   
----            -------         ------          ----            -------------   
00036.M2TS      0:00:00.000     0:23:21.400     4,702,224,384   26,843          
00037.M2TS      0:23:21.400     0:23:21.650     4,746,319,872   27,090          
00038.M2TS      0:46:43.050     0:23:21.900     4,684,050,432   26,730          
00039.M2TS      1:10:04.950     0:23:21.817     4,729,853,952   26,993          
00040.M2TS      1:33:26.767     0:23:21.858     4,592,424,960   26,208          
00041.M2TS      1:56:48.626     0:23:21.733     4,757,544,960   27,152          
00042.M2TS      2:20:10.360     0:23:22.025     4,568,156,160   26,066          
00043.M2TS      2:43:32.385     0:23:22.859     4,666,804,224   26,613          
00044.M2TS      3:06:55.245     0:23:21.858     4,701,315,072   26,829          
00047.M2TS      3:30:17.104     0:00:00.500     387,072         6,187           

CHAPTERS:

Number          Time In         Length          Avg Video Rate  Max 1-Sec Rate  Max 1-Sec Time  Max 5-Sec Rate  Max 5-Sec Time  Max 10Sec Rate  Max 10Sec Time  Avg Frame Size  Max Frame Size  Max Frame Time  
------          -------         ------          --------------  --------------  --------------  --------------  --------------  --------------  --------------  --------------  --------------  --------------  
1               0:00:00.000     0:01:31.007     21,144 kbps     35,847 kbps     00:01:07.734    32,637 kbps     00:00:13.013    28,939 kbps     00:00:11.011    110,184 bytes   366,025 bytes   00:00:14.055    
2               0:01:31.007     0:10:53.611     19,726 kbps     34,687 kbps     00:11:05.081    28,474 kbps     00:02:32.861    26,756 kbps     00:02:26.896    102,842 bytes   486,113 bytes   00:12:23.576    
3               0:12:24.618     0:09:09.966     18,929 kbps     37,926 kbps     00:19:51.815    33,754 kbps     00:12:29.749    31,010 kbps     00:12:26.579    98,688 bytes    465,839 bytes   00:12:25.619    
4               0:21:34.584     0:01:46.815     13,054 kbps     21,391 kbps     00:22:15.417    20,459 kbps     00:22:11.538    18,018 kbps     00:22:06.700    68,058 bytes    283,349 bytes   00:23:10.555    
5               0:23:21.400     0:01:31.007     22,428 kbps     36,699 kbps     00:24:29.176    33,953 kbps     00:23:34.413    30,291 kbps     00:23:32.411    116,931 bytes   373,129 bytes   00:24:29.468    
6               0:24:52.407     0:09:23.813     19,352 kbps     39,006 kbps     00:25:56.471    26,067 kbps     00:27:26.269    25,380 kbps     00:25:56.471    100,895 bytes   310,564 bytes   00:30:13.812    
7               0:34:16.220     0:10:41.057     19,093 kbps     39,280 kbps     00:35:18.616    34,608 kbps     00:35:16.489    30,431 kbps     00:35:16.489    99,542 bytes    264,234 bytes   00:34:20.725    
8               0:44:57.277     0:01:45.772     13,571 kbps     22,038 kbps     00:45:37.693    21,024 kbps     00:45:33.814    18,783 kbps     00:45:29.101    70,753 bytes    287,905 bytes   00:46:32.831    
9               0:46:43.050     0:01:31.007     23,741 kbps     37,449 kbps     00:47:50.742    35,186 kbps     00:46:56.063    31,522 kbps     00:46:54.061    123,776 bytes   378,550 bytes   00:46:57.105    
10              0:48:14.057     0:10:16.032     18,855 kbps     26,841 kbps     00:53:01.928    24,109 kbps     00:56:30.178    23,136 kbps     00:56:28.635    98,302 bytes    499,555 bytes   00:58:30.089    
11              0:58:30.089     0:09:49.005     19,268 kbps     27,256 kbps     01:00:37.800    24,427 kbps     00:58:51.110    23,504 kbps     01:06:52.133    100,455 bytes   519,213 bytes   00:58:31.090    
12              1:08:19.094     0:01:45.855     13,996 kbps     22,448 kbps     01:08:59.552    21,457 kbps     01:08:55.673    19,007 kbps     01:08:50.960    72,971 bytes    294,497 bytes   01:09:54.690    
13              1:10:04.950     0:01:31.049     24,423 kbps     38,696 kbps     01:11:12.559    35,681 kbps     01:10:17.963    31,909 kbps     01:10:15.961    127,330 bytes   382,041 bytes   01:10:19.006    
14              1:11:36.000     0:08:40.019     19,144 kbps     40,277 kbps     01:20:14.351    30,236 kbps     01:11:36.000    25,508 kbps     01:12:38.645    99,807 bytes    409,500 bytes   01:20:15.227    
15              1:20:16.019     0:11:25.017     18,902 kbps     39,242 kbps     01:20:16.520    26,699 kbps     01:20:16.019    23,836 kbps     01:23:27.001    98,548 bytes    356,944 bytes   01:20:17.020    
16              1:31:41.037     0:01:45.730     14,114 kbps     22,831 kbps     01:32:21.452    21,777 kbps     01:32:17.573    19,248 kbps     01:32:12.735    73,582 bytes    297,513 bytes   01:33:16.590    
17              1:33:26.767     0:01:31.049     24,073 kbps     37,805 kbps     01:34:34.376    34,845 kbps     01:33:39.780    31,238 kbps     01:33:37.778    125,504 bytes   370,273 bytes   01:33:40.823    
18              1:34:57.817     0:11:15.966     19,235 kbps     40,020 kbps     01:35:09.286    37,687 kbps     01:35:17.294    34,758 kbps     01:35:17.294    100,284 bytes   598,979 bytes   01:46:13.784    
19              1:46:13.784     0:08:49.028     18,897 kbps     40,508 kbps     01:54:41.249    38,635 kbps     01:54:37.245    36,961 kbps     01:54:34.492    98,518 bytes    606,362 bytes   01:46:14.785    
20              1:55:02.812     0:01:45.814     13,433 kbps     21,959 kbps     01:55:43.144    20,956 kbps     01:55:39.140    18,509 kbps     01:55:34.552    70,031 bytes    279,833 bytes   01:56:07.126    
21              1:56:48.626     0:01:31.049     24,071 kbps     37,301 kbps     01:57:56.235    34,663 kbps     01:57:01.639    31,119 kbps     01:56:59.637    125,495 bytes   377,341 bytes   01:57:02.682    
22              1:58:19.675     0:09:46.002     20,211 kbps     27,121 kbps     02:07:38.233    23,866 kbps     01:58:32.313    23,566 kbps     01:58:28.768    105,372 bytes   476,412 bytes   02:08:03.634    
23              2:08:05.677     0:10:18.618     18,085 kbps     31,363 kbps     02:12:38.450    25,743 kbps     02:12:34.446    24,598 kbps     02:12:13.842    94,289 bytes    426,934 bytes   02:08:06.678    
24              2:18:24.295     0:01:46.064     13,276 kbps     21,769 kbps     02:19:04.419    20,779 kbps     02:19:00.415    18,272 kbps     02:18:55.827    69,213 bytes    259,693 bytes   02:19:28.401    
25              2:20:10.360     0:01:31.007     22,373 kbps     36,875 kbps     02:21:18.219    33,496 kbps     02:20:23.373    29,859 kbps     02:20:21.371    116,643 bytes   367,268 bytes   02:20:24.415    
26              2:21:41.367     0:09:20.017     19,089 kbps     26,003 kbps     02:23:29.726    23,945 kbps     02:30:50.624    23,425 kbps     02:24:45.968    99,521 bytes    411,269 bytes   02:22:34.921    
27              2:31:01.385     0:10:45.061     19,348 kbps     29,253 kbps     02:40:15.564    27,940 kbps     02:40:15.397    27,778 kbps     02:40:15.397    100,870 bytes   343,267 bytes   02:40:25.115    
28              2:41:46.446     0:01:45.939     13,413 kbps     21,885 kbps     02:42:26.570    20,845 kbps     02:42:22.691    18,232 kbps     02:42:17.978    69,928 bytes    308,464 bytes   02:42:51.553    
29              2:43:32.385     0:01:31.049     22,987 kbps     36,493 kbps     02:44:39.995    34,321 kbps     02:43:45.398    30,619 kbps     02:43:43.396    119,843 bytes   372,161 bytes   02:43:46.441    
30              2:45:03.435     0:08:57.954     18,759 kbps     39,734 kbps     02:45:59.491    36,088 kbps     02:45:58.865    28,531 kbps     02:45:56.780    97,802 bytes    375,180 bytes   02:54:01.389    
31              2:54:01.389     0:11:07.041     19,526 kbps     39,772 kbps     03:05:07.012    33,242 kbps     03:05:03.342    26,661 kbps     03:04:58.337    101,800 bytes   406,020 bytes   02:54:03.391    
32              3:05:08.430     0:01:46.815     13,355 kbps     22,369 kbps     03:05:49.263    21,301 kbps     03:05:45.384    18,452 kbps     03:05:40.671    69,627 bytes    273,218 bytes   03:06:14.246    
33              3:06:55.245     0:01:31.007     21,836 kbps     35,523 kbps     03:08:02.854    32,954 kbps     03:07:08.258    29,239 kbps     03:07:06.256    113,842 bytes   362,842 bytes   03:07:09.301    
34              3:08:26.253     0:09:19.600     19,756 kbps     29,369 kbps     03:15:24.003    26,920 kbps     03:15:01.272    25,635 kbps     03:15:01.397    102,999 bytes   341,276 bytes   03:17:43.726    
35              3:17:45.853     0:10:44.560     18,955 kbps     31,022 kbps     03:25:25.688    26,590 kbps     03:25:25.438    25,383 kbps     03:25:19.765    98,825 bytes    337,494 bytes   03:17:49.857    
36              3:28:30.414     0:01:47.190     12,699 kbps     19,978 kbps     03:29:11.246    19,352 kbps     03:29:07.368    17,087 kbps     03:29:02.655    66,234 bytes    292,774 bytes   03:29:36.230    

STREAM DIAGNOSTICS:

File            PID             Type            Codec           Language                Seconds                 Bitrate                 Bytes           Packets         
----            ---             ----            -----           --------                --------------          --------------          -------------   -----           
00036.M2TS      4113 (0x1011)   0x1B            AVC                                     1401.233                18,999                  3,327,778,454   18,105,240      
00036.M2TS      4352 (0x1100)   0x83            TrueHD          eng (English)           1401.233                2,255                   394,933,206     3,156,518       
00036.M2TS      4353 (0x1101)   0x83            TrueHD          jpn (Japanese)          1401.233                2,259                   395,602,560     3,140,223       
00036.M2TS      4608 (0x1200)   0x90            PGS             eng (English)           1401.233                36                      6,356,495       36,736          
00036.M2TS      4609 (0x1201)   0x90            PGS             eng (English)           1401.233                5                       904,427         5,046           
00037.M2TS      4113 (0x1011)   0x1B            AVC                                     1401.483                19,000                  3,328,438,345   18,108,864      
00037.M2TS      4352 (0x1100)   0x83            TrueHD          eng (English)           1401.483                2,311                   404,810,554     3,271,843       
00037.M2TS      4353 (0x1101)   0x83            TrueHD          jpn (Japanese)          1401.483                2,308                   404,382,428     3,256,770       
00037.M2TS      4608 (0x1200)   0x90            PGS             eng (English)           1401.483                31                      5,389,939       30,948          
00037.M2TS      4609 (0x1201)   0x90            PGS             eng (English)           1401.483                5                       896,925         5,006           
00038.M2TS      4113 (0x1011)   0x1B            AVC                                     1401.734                18,981                  3,325,814,257   18,094,625      
00038.M2TS      4352 (0x1100)   0x83            TrueHD          eng (English)           1401.734                2,199                   385,340,732     3,123,038       
00038.M2TS      4353 (0x1101)   0x83            TrueHD          jpn (Japanese)          1401.734                2,178                   381,639,982     3,082,623       
00038.M2TS      4608 (0x1200)   0x90            PGS             eng (English)           1401.734                43                      7,580,511       43,617          
00038.M2TS      4609 (0x1201)   0x90            PGS             eng (English)           1401.734                5                       928,325         5,198           
00039.M2TS      4113 (0x1011)   0x1B            AVC                                     1401.650                18,992                  3,327,437,663   18,103,468      
00039.M2TS      4352 (0x1100)   0x83            TrueHD          eng (English)           1401.650                2,243                   393,051,496     3,224,699       
00039.M2TS      4353 (0x1101)   0x83            TrueHD          jpn (Japanese)          1401.650                2,238                   392,091,934     3,215,265       
00039.M2TS      4608 (0x1200)   0x90            PGS             eng (English)           1401.650                39                      6,796,274       39,090          
00039.M2TS      4609 (0x1201)   0x90            PGS             eng (English)           1401.650                5                       921,309         5,145           
00040.M2TS      4113 (0x1011)   0x1B            AVC                                     1401.692                18,986                  3,326,550,692   18,098,666      
00040.M2TS      4352 (0x1100)   0x83            TrueHD          eng (English)           1401.692                2,070                   362,704,140     2,868,997       
00040.M2TS      4353 (0x1101)   0x83            TrueHD          jpn (Japanese)          1401.692                2,053                   359,630,220     2,859,036       
00040.M2TS      4608 (0x1200)   0x90            PGS             eng (English)           1401.692                40                      6,982,003       40,069          
00040.M2TS      4609 (0x1201)   0x90            PGS             eng (English)           1401.692                5                       914,414         5,114           
00041.M2TS      4113 (0x1011)   0x1B            AVC                                     1401.567                19,001                  3,328,931,835   18,111,640      
00041.M2TS      4352 (0x1100)   0x83            TrueHD          eng (English)           1401.567                2,302                   403,266,994     3,293,552       
00041.M2TS      4353 (0x1101)   0x83            TrueHD          jpn (Japanese)          1401.567                2,289                   400,938,936     3,273,820       
00041.M2TS      4608 (0x1200)   0x90            PGS             eng (English)           1401.567                46                      8,100,079       46,410          
00041.M2TS      4609 (0x1201)   0x90            PGS             eng (English)           1401.567                7                       1,150,364       6,460           
00042.M2TS      4113 (0x1011)   0x1B            AVC                                     1401.859                18,995                  3,328,458,538   18,109,023      
00042.M2TS      4352 (0x1100)   0x83            TrueHD          eng (English)           1401.859                2,007                   351,753,232     2,773,459       
00042.M2TS      4353 (0x1101)   0x83            TrueHD          jpn (Japanese)          1401.859                2,026                   355,051,686     2,819,680       
00042.M2TS      4608 (0x1200)   0x90            PGS             eng (English)           1401.859                37                      6,456,686       37,208          
00042.M2TS      4609 (0x1201)   0x90            PGS             eng (English)           1401.859                6                       1,095,764       6,118           
00043.M2TS      4113 (0x1011)   0x1B            AVC                                     1402.693                18,989                  3,329,472,785   18,114,504      
00043.M2TS      4352 (0x1100)   0x83            TrueHD          eng (English)           1402.693                2,133                   373,930,934     3,056,804       
00043.M2TS      4353 (0x1101)   0x83            TrueHD          jpn (Japanese)          1402.693                2,124                   372,368,508     3,038,328       
00043.M2TS      4608 (0x1200)   0x90            PGS             eng (English)           1402.693                42                      7,435,039       42,701          
00043.M2TS      4609 (0x1201)   0x90            PGS             eng (English)           1402.693                7                       1,228,590       6,897           
00044.M2TS      4113 (0x1011)   0x1B            AVC                                     1401.692                18,992                  3,327,702,999   18,104,946      
00044.M2TS      4352 (0x1100)   0x83            TrueHD          eng (English)           1401.692                2,210                   387,168,266     3,107,960       
00044.M2TS      4353 (0x1101)   0x83            TrueHD          jpn (Japanese)          1401.692                2,253                   394,732,526     3,178,036       
00044.M2TS      4608 (0x1200)   0x90            PGS             eng (English)           1401.692                42                      7,325,479       41,789          
00044.M2TS      4609 (0x1201)   0x90            PGS             eng (English)           1401.692                6                       1,124,230       6,288           
00047.M2TS      4113 (0x1011)   0x1B            AVC                                     0.334                   1,049                   43,765          248             
00047.M2TS      4352 (0x1100)   0x83            TrueHD          eng (English)           0.334                   1,430                   59,642          841             
00047.M2TS      4353 (0x1101)   0x83            TrueHD          jpn (Japanese)          0.334                   1,430                   59,642          841             
00047.M2TS      4608 (0x1200)   0x90            PGS             eng (English)           0.334                   2                       70              7               
00047.M2TS      4609 (0x1201)   0x90            PGS             eng (English)           0.334                   2                       70              7               

[/code]
<---- END FORUMS PASTE ---->

QUICK SUMMARY:

Disc Title: SAMURAI_CHAMPLOO_D1
Disc Size: 42,791,940,315 bytes
Protection: AACS
BD-Java: No
Playlist: 00001.MPLS
Size: 42,149,081,088 bytes
Length: 3:30:17.604
Total Bitrate: 26.72 Mbps
Video: MPEG-4 AVC Video / 18990 kbps / 1080p / 23.976 fps / 16:9 / High Profile 4.1
Audio: English / Dolby TrueHD Audio / 5.1 / 48 kHz / 1744 kbps / 16-bit (AC3 Embedded: 5.1 / 48 kHz / 448 kbps / DN -9dB)
Audio: Japanese / Dolby TrueHD Audio / 5.1 / 48 kHz / 1744 kbps / 16-bit (AC3 Embedded: 5.1 / 48 kHz / 448 kbps / DN -9dB)
Subtitle: English / 39.578 kbps
Subtitle: English / 5.811 kbps


********************
PLAYLIST: 00035.MPLS
********************

<--- BEGIN FORUMS PASTE --->
[code]
                                                                                                                Total   Video                                             
Title                                                           Codec   Length  Movie Size      Disc Size       Bitrate Bitrate Main Audio Track                          Secondary Audio Track
-----                                                           ------  ------- --------------  --------------  ------- ------- ------------------                        ---------------------
00035.MPLS                                                      AVC     0:23:22 4,666,804,224   42,791,940,315  26.61   18.99   Dolby TrueHD 5.1 1684Kbps (48kHz/16-bit)  
[/code]

[code]

DISC INFO:

Disc Title:     SAMURAI_CHAMPLOO_D1
Disc Size:      42,791,940,315 bytes
Protection:     AACS
BD-Java:        No
BDInfo:         0.5.8

PLAYLIST REPORT:

Name:                   00035.MPLS
Length:                 0:23:22.859 (h:m:s.ms)
Size:                   4,666,804,224 bytes
Total Bitrate:          26.61 Mbps

VIDEO:

Codec                   Bitrate             Description     
-----                   -------             -----------     
MPEG-4 AVC Video        18987 kbps          1080p / 23.976 fps / 16:9 / High Profile 4.1

AUDIO:

Codec                           Language        Bitrate         Description     
-----                           --------        -------         -----------     
Dolby TrueHD Audio              English         1684 kbps       5.1 / 48 kHz / 1684 kbps / 16-bit (AC3 Embedded: 5.1 / 48 kHz / 448 kbps / DN -9dB)
Dolby TrueHD Audio              Japanese        1675 kbps       5.1 / 48 kHz / 1675 kbps / 16-bit (AC3 Embedded: 5.1 / 48 kHz / 448 kbps / DN -9dB)

SUBTITLES:

Codec                           Language        Bitrate         Description     
-----                           --------        -------         -----------     
Presentation Graphics           English         42.399 kbps                     
Presentation Graphics           English         7.006 kbps                      

FILES:

Name            Time In         Length          Size            Total Bitrate   
----            -------         ------          ----            -------------   
00043.M2TS      0:00:00.000     0:23:22.859     4,666,804,224   26,613          

CHAPTERS:

Number          Time In         Length          Avg Video Rate  Max 1-Sec Rate  Max 1-Sec Time  Max 5-Sec Rate  Max 5-Sec Time  Max 10Sec Rate  Max 10Sec Time  Avg Frame Size  Max Frame Size  Max Frame Time  
------          -------         ------          --------------  --------------  --------------  --------------  --------------  --------------  --------------  --------------  --------------  --------------  
1               0:00:00.000     0:01:31.049     22,987 kbps     36,493 kbps     00:01:07.609    34,321 kbps     00:00:13.013    30,619 kbps     00:00:11.011    119,788 bytes   372,161 bytes   00:00:14.055    
2               0:01:31.049     0:08:57.954     18,759 kbps     39,734 kbps     00:02:27.105    36,088 kbps     00:02:26.479    28,531 kbps     00:02:24.394    97,802 bytes    375,180 bytes   00:10:29.003    
3               0:10:29.003     0:11:07.041     19,526 kbps     39,772 kbps     00:21:34.626    33,242 kbps     00:21:30.956    26,661 kbps     00:21:25.951    101,800 bytes   406,020 bytes   00:10:31.005    
4               0:21:36.044     0:01:46.815     13,355 kbps     22,369 kbps     00:22:16.877    21,301 kbps     00:22:12.998    18,452 kbps     00:22:08.285    69,654 bytes    273,218 bytes   00:22:41.860    

STREAM DIAGNOSTICS:

File            PID             Type            Codec           Language                Seconds                 Bitrate                 Bytes           Packets         
----            ---             ----            -----           --------                --------------          --------------          -------------   -----           
00043.M2TS      4113 (0x1011)   0x1B            AVC                                     1402.693                18,989                  3,329,472,785   18,114,504      
00043.M2TS      4352 (0x1100)   0x83            TrueHD          eng (English)           1402.693                2,133                   373,930,934     3,056,804       
00043.M2TS      4353 (0x1101)   0x83            TrueHD          jpn (Japanese)          1402.693                2,124                   372,368,508     3,038,328       
00043.M2TS      4608 (0x1200)   0x90            PGS             eng (English)           1402.693                42                      7,435,039       42,701          
00043.M2TS      4609 (0x1201)   0x90            PGS             eng (English)           1402.693                7                       1,228,590       6,897           

[/code]
<---- END FORUMS PASTE ---->

QUICK SUMMARY:

Disc Title: SAMURAI_CHAMPLOO_D1
Disc Size: 42,791,940,315 bytes
Protection: AACS
BD-Java: No
Playlist: 00035.MPLS
Size: 4,666,804,224 bytes
Length: 0:23:22.859
Total Bitrate: 26.61 Mbps
Video: MPEG-4 AVC Video / 18987 kbps / 1080p / 23.976 fps / 16:9 / High Profile 4.1
Audio: English / Dolby TrueHD Audio / 5.1 / 48 kHz / 1684 kbps / 16-bit (AC3 Embedded: 5.1 / 48 kHz / 448 kbps / DN -9dB)
Audio: Japanese / Dolby TrueHD Audio / 5.1 / 48 kHz / 1675 kbps / 16-bit (AC3 Embedded: 5.1 / 48 kHz / 448 kbps / DN -9dB)
Subtitle: English / 42.399 kbps
Subtitle: English / 7.006 kbps


********************
PLAYLIST: 00034.MPLS
********************

<--- BEGIN FORUMS PASTE --->
[code]
                                                                                                                Total   Video                                             
Title                                                           Codec   Length  Movie Size      Disc Size       Bitrate Bitrate Main Audio Track                          Secondary Audio Track
-----                                                           ------  ------- --------------  --------------  ------- ------- ------------------                        ---------------------
00034.MPLS                                                      AVC     0:23:22 4,568,156,160   42,791,940,315  26.07   18.99   Dolby TrueHD 5.1 1559Kbps (48kHz/16-bit)  
[/code]

[code]

DISC INFO:

Disc Title:     SAMURAI_CHAMPLOO_D1
Disc Size:      42,791,940,315 bytes
Protection:     AACS
BD-Java:        No
BDInfo:         0.5.8

PLAYLIST REPORT:

Name:                   00034.MPLS
Length:                 0:23:22.025 (h:m:s.ms)
Size:                   4,568,156,160 bytes
Total Bitrate:          26.07 Mbps

VIDEO:

Codec                   Bitrate             Description     
-----                   -------             -----------     
MPEG-4 AVC Video        18992 kbps          1080p / 23.976 fps / 16:9 / High Profile 4.1

AUDIO:

Codec                           Language        Bitrate         Description     
-----                           --------        -------         -----------     
Dolby TrueHD Audio              English         1559 kbps       5.1 / 48 kHz / 1559 kbps / 16-bit (AC3 Embedded: 5.1 / 48 kHz / 448 kbps / DN -9dB)
Dolby TrueHD Audio              Japanese        1578 kbps       5.1 / 48 kHz / 1578 kbps / 16-bit (AC3 Embedded: 5.1 / 48 kHz / 448 kbps / DN -9dB)

SUBTITLES:

Codec                           Language        Bitrate         Description     
-----                           --------        -------         -----------     
Presentation Graphics           English         36.842 kbps                     
Presentation Graphics           English         6.252 kbps                      

FILES:

Name            Time In         Length          Size            Total Bitrate   
----            -------         ------          ----            -------------   
00042.M2TS      0:00:00.000     0:23:22.025     4,568,156,160   26,066          

CHAPTERS:

Number          Time In         Length          Avg Video Rate  Max 1-Sec Rate  Max 1-Sec Time  Max 5-Sec Rate  Max 5-Sec Time  Max 10Sec Rate  Max 10Sec Time  Avg Frame Size  Max Frame Size  Max Frame Time  
------          -------         ------          --------------  --------------  --------------  --------------  --------------  --------------  --------------  --------------  --------------  --------------  
1               0:00:00.000     0:01:31.007     22,373 kbps     36,875 kbps     00:01:07.859    33,496 kbps     00:00:13.013    29,859 kbps     00:00:11.011    116,590 bytes   367,268 bytes   00:00:14.055    
2               0:01:31.007     0:09:20.017     19,089 kbps     26,003 kbps     00:03:19.365    23,945 kbps     00:10:40.264    23,425 kbps     00:04:35.608    99,521 bytes    411,269 bytes   00:02:24.561    
3               0:10:51.025     0:10:45.061     19,348 kbps     29,253 kbps     00:20:05.204    27,940 kbps     00:20:05.037    27,778 kbps     00:20:05.037    100,870 bytes   343,267 bytes   00:20:14.755    
4               0:21:36.086     0:01:45.939     13,413 kbps     21,885 kbps     00:22:16.209    20,845 kbps     00:22:12.330    18,232 kbps     00:22:07.617    69,955 bytes    308,464 bytes   00:22:41.193    

STREAM DIAGNOSTICS:

File            PID             Type            Codec           Language                Seconds                 Bitrate                 Bytes           Packets         
----            ---             ----            -----           --------                --------------          --------------          -------------   -----           
00042.M2TS      4113 (0x1011)   0x1B            AVC                                     1401.859                18,995                  3,328,458,538   18,109,023      
00042.M2TS      4352 (0x1100)   0x83            TrueHD          eng (English)           1401.859                2,007                   351,753,232     2,773,459       
00042.M2TS      4353 (0x1101)   0x83            TrueHD          jpn (Japanese)          1401.859                2,026                   355,051,686     2,819,680       
00042.M2TS      4608 (0x1200)   0x90            PGS             eng (English)           1401.859                37                      6,456,686       37,208          
00042.M2TS      4609 (0x1201)   0x90            PGS             eng (English)           1401.859                6                       1,095,764       6,118           

[/code]
<---- END FORUMS PASTE ---->

QUICK SUMMARY:

Disc Title: SAMURAI_CHAMPLOO_D1
Disc Size: 42,791,940,315 bytes
Protection: AACS
BD-Java: No
Playlist: 00034.MPLS
Size: 4,568,156,160 bytes
Length: 0:23:22.025
Total Bitrate: 26.07 Mbps
Video: MPEG-4 AVC Video / 18992 kbps / 1080p / 23.976 fps / 16:9 / High Profile 4.1
Audio: English / Dolby TrueHD Audio / 5.1 / 48 kHz / 1559 kbps / 16-bit (AC3 Embedded: 5.1 / 48 kHz / 448 kbps / DN -9dB)
Audio: Japanese / Dolby TrueHD Audio / 5.1 / 48 kHz / 1578 kbps / 16-bit (AC3 Embedded: 5.1 / 48 kHz / 448 kbps / DN -9dB)
Subtitle: English / 36.842 kbps
Subtitle: English / 6.252 kbps


********************
PLAYLIST: 00030.MPLS
********************

<--- BEGIN FORUMS PASTE --->
[code]
                                                                                                                Total   Video                                             
Title                                                           Codec   Length  Movie Size      Disc Size       Bitrate Bitrate Main Audio Track                          Secondary Audio Track
-----                                                           ------  ------- --------------  --------------  ------- ------- ------------------                        ---------------------
00030.MPLS                                                      AVC     0:23:21 4,684,050,432   42,791,940,315  26.73   18.98   Dolby TrueHD 5.1 1751Kbps (48kHz/16-bit)  
[/code]

[code]

DISC INFO:

Disc Title:     SAMURAI_CHAMPLOO_D1
Disc Size:      42,791,940,315 bytes
Protection:     AACS
BD-Java:        No
BDInfo:         0.5.8

PLAYLIST REPORT:

Name:                   00030.MPLS
Length:                 0:23:21.900 (h:m:s.ms)
Size:                   4,684,050,432 bytes
Total Bitrate:          26.73 Mbps

VIDEO:

Codec                   Bitrate             Description     
-----                   -------             -----------     
MPEG-4 AVC Video        18979 kbps          1080p / 23.976 fps / 16:9 / High Profile 4.1

AUDIO:

Codec                           Language        Bitrate         Description     
-----                           --------        -------         -----------     
Dolby TrueHD Audio              English         1751 kbps       5.1 / 48 kHz / 1751 kbps / 16-bit (AC3 Embedded: 5.1 / 48 kHz / 448 kbps / DN -8dB)
Dolby TrueHD Audio              Japanese        1730 kbps       5.1 / 48 kHz / 1730 kbps / 16-bit (AC3 Embedded: 5.1 / 48 kHz / 448 kbps / DN -7dB)

SUBTITLES:

Codec                           Language        Bitrate         Description     
-----                           --------        -------         -----------     
Presentation Graphics           English         43.258 kbps                     
Presentation Graphics           English         5.298 kbps                      

FILES:

Name            Time In         Length          Size            Total Bitrate   
----            -------         ------          ----            -------------   
00038.M2TS      0:00:00.000     0:23:21.900     4,684,050,432   26,730          

CHAPTERS:

Number          Time In         Length          Avg Video Rate  Max 1-Sec Rate  Max 1-Sec Time  Max 5-Sec Rate  Max 5-Sec Time  Max 10Sec Rate  Max 10Sec Time  Avg Frame Size  Max Frame Size  Max Frame Time  
------          -------         ------          --------------  --------------  --------------  --------------  --------------  --------------  --------------  --------------  --------------  --------------  
1               0:00:00.000     0:01:31.007     23,741 kbps     37,449 kbps     00:01:07.692    35,186 kbps     00:00:13.013    31,522 kbps     00:00:11.011    123,720 bytes   378,550 bytes   00:00:14.055    
2               0:01:31.007     0:10:16.032     18,855 kbps     26,841 kbps     00:06:18.878    24,109 kbps     00:09:47.128    23,136 kbps     00:09:45.585    98,302 bytes    499,555 bytes   00:11:47.039    
3               0:11:47.039     0:09:49.005     19,268 kbps     27,256 kbps     00:13:54.750    24,427 kbps     00:12:08.060    23,504 kbps     00:20:09.082    100,455 bytes   519,213 bytes   00:11:48.040    
4               0:21:36.044     0:01:45.855     13,996 kbps     22,448 kbps     00:22:16.501    21,457 kbps     00:22:12.622    19,007 kbps     00:22:07.909    72,999 bytes    294,497 bytes   00:23:11.640    

STREAM DIAGNOSTICS:

File            PID             Type            Codec           Language                Seconds                 Bitrate                 Bytes           Packets         
----            ---             ----            -----           --------                --------------          --------------          -------------   -----           
00038.M2TS      4113 (0x1011)   0x1B            AVC                                     1401.734                18,981                  3,325,814,257   18,094,625      
00038.M2TS      4352 (0x1100)   0x83            TrueHD          eng (English)           1401.734                2,199                   385,340,732     3,123,038       
00038.M2TS      4353 (0x1101)   0x83            TrueHD          jpn (Japanese)          1401.734                2,178                   381,639,982     3,082,623       
00038.M2TS      4608 (0x1200)   0x90            PGS             eng (English)           1401.734                43                      7,580,511       43,617          
00038.M2TS      4609 (0x1201)   0x90            PGS             eng (English)           1401.734                5                       928,325         5,198           

[/code]
<---- END FORUMS PASTE ---->

QUICK SUMMARY:

Disc Title: SAMURAI_CHAMPLOO_D1
Disc Size: 42,791,940,315 bytes
Protection: AACS
BD-Java: No
Playlist: 00030.MPLS
Size: 4,684,050,432 bytes
Length: 0:23:21.900
Total Bitrate: 26.73 Mbps
Video: MPEG-4 AVC Video / 18979 kbps / 1080p / 23.976 fps / 16:9 / High Profile 4.1
Audio: English / Dolby TrueHD Audio / 5.1 / 48 kHz / 1751 kbps / 16-bit (AC3 Embedded: 5.1 / 48 kHz / 448 kbps / DN -8dB)
Audio: Japanese / Dolby TrueHD Audio / 5.1 / 48 kHz / 1730 kbps / 16-bit (AC3 Embedded: 5.1 / 48 kHz / 448 kbps / DN -7dB)
Subtitle: English / 43.258 kbps
Subtitle: English / 5.298 kbps


********************
PLAYLIST: 00032.MPLS
********************

<--- BEGIN FORUMS PASTE --->
[code]
                                                                                                                Total   Video                                             
Title                                                           Codec   Length  Movie Size      Disc Size       Bitrate Bitrate Main Audio Track                          Secondary Audio Track
-----                                                           ------  ------- --------------  --------------  ------- ------- ------------------                        ---------------------
00032.MPLS                                                      AVC     0:23:21 4,592,424,960   42,791,940,315  26.21   18.98   Dolby TrueHD 5.1 1622Kbps (48kHz/16-bit)  
[/code]

[code]

DISC INFO:

Disc Title:     SAMURAI_CHAMPLOO_D1
Disc Size:      42,791,940,315 bytes
Protection:     AACS
BD-Java:        No
BDInfo:         0.5.8

PLAYLIST REPORT:

Name:                   00032.MPLS
Length:                 0:23:21.858 (h:m:s.ms)
Size:                   4,592,424,960 bytes
Total Bitrate:          26.21 Mbps

VIDEO:

Codec                   Bitrate             Description     
-----                   -------             -----------     
MPEG-4 AVC Video        18984 kbps          1080p / 23.976 fps / 16:9 / High Profile 4.1

AUDIO:

Codec                           Language        Bitrate         Description     
-----                           --------        -------         -----------     
Dolby TrueHD Audio              English         1622 kbps       5.1 / 48 kHz / 1622 kbps / 16-bit (AC3 Embedded: 5.1 / 48 kHz / 448 kbps / DN -6dB)
Dolby TrueHD Audio              Japanese        1604 kbps       5.1 / 48 kHz / 1604 kbps / 16-bit (AC3 Embedded: 5.1 / 48 kHz / 448 kbps / DN -6dB)

SUBTITLES:

Codec                           Language        Bitrate         Description     
-----                           --------        -------         -----------     
Presentation Graphics           English         39.844 kbps                     
Presentation Graphics           English         5.218 kbps                      

FILES:

Name            Time In         Length          Size            Total Bitrate   
----            -------         ------          ----            -------------   
00040.M2TS      0:00:00.000     0:23:21.858     4,592,424,960   26,208          

CHAPTERS:

Number          Time In         Length          Avg Video Rate  Max 1-Sec Rate  Max 1-Sec Time  Max 5-Sec Rate  Max 5-Sec Time  Max 10Sec Rate  Max 10Sec Time  Avg Frame Size  Max Frame Size  Max Frame Time  
------          -------         ------          --------------  --------------  --------------  --------------  --------------  --------------  --------------  --------------  --------------  --------------  
1               0:00:00.000     0:01:31.049     24,073 kbps     37,805 kbps     00:01:07.609    34,845 kbps     00:00:13.013    31,238 kbps     00:00:11.011    125,446 bytes   370,273 bytes   00:00:14.055    
2               0:01:31.049     0:11:15.966     19,235 kbps     40,020 kbps     00:01:42.519    37,687 kbps     00:01:50.527    34,758 kbps     00:01:50.527    100,284 bytes   598,979 bytes   00:12:47.016    
3               0:12:47.016     0:08:49.028     18,897 kbps     40,508 kbps     00:21:14.481    38,635 kbps     00:21:10.477    36,961 kbps     00:21:07.724    98,518 bytes    606,362 bytes   00:12:48.017    
4               0:21:36.044     0:01:45.814     13,433 kbps     21,959 kbps     00:22:16.376    20,956 kbps     00:22:12.372    18,509 kbps     00:22:07.784    70,059 bytes    279,833 bytes   00:22:40.359    

STREAM DIAGNOSTICS:

File            PID             Type            Codec           Language                Seconds                 Bitrate                 Bytes           Packets         
----            ---             ----            -----           --------                --------------          --------------          -------------   -----           
00040.M2TS      4113 (0x1011)   0x1B            AVC                                     1401.692                18,986                  3,326,550,692   18,098,666      
00040.M2TS      4352 (0x1100)   0x83            TrueHD          eng (English)           1401.692                2,070                   362,704,140     2,868,997       
00040.M2TS      4353 (0x1101)   0x83            TrueHD          jpn (Japanese)          1401.692                2,053                   359,630,220     2,859,036       
00040.M2TS      4608 (0x1200)   0x90            PGS             eng (English)           1401.692                40                      6,982,003       40,069          
00040.M2TS      4609 (0x1201)   0x90            PGS             eng (English)           1401.692                5                       914,414         5,114           

[/code]
<---- END FORUMS PASTE ---->

QUICK SUMMARY:

Disc Title: SAMURAI_CHAMPLOO_D1
Disc Size: 42,791,940,315 bytes
Protection: AACS
BD-Java: No
Playlist: 00032.MPLS
Size: 4,592,424,960 bytes
Length: 0:23:21.858
Total Bitrate: 26.21 Mbps
Video: MPEG-4 AVC Video / 18984 kbps / 1080p / 23.976 fps / 16:9 / High Profile 4.1
Audio: English / Dolby TrueHD Audio / 5.1 / 48 kHz / 1622 kbps / 16-bit (AC3 Embedded: 5.1 / 48 kHz / 448 kbps / DN -6dB)
Audio: Japanese / Dolby TrueHD Audio / 5.1 / 48 kHz / 1604 kbps / 16-bit (AC3 Embedded: 5.1 / 48 kHz / 448 kbps / DN -6dB)
Subtitle: English / 39.844 kbps
Subtitle: English / 5.218 kbps


********************
PLAYLIST: 00036.MPLS
********************

<--- BEGIN FORUMS PASTE --->
[code]
                                                                                                                Total   Video                                             
Title                                                           Codec   Length  Movie Size      Disc Size       Bitrate Bitrate Main Audio Track                          Secondary Audio Track
-----                                                           ------  ------- --------------  --------------  ------- ------- ------------------                        ---------------------
00036.MPLS                                                      AVC     0:23:21 4,701,315,072   42,791,940,315  26.83   18.99   Dolby TrueHD 5.1 1761Kbps (48kHz/16-bit)  
[/code]

[code]

DISC INFO:

Disc Title:     SAMURAI_CHAMPLOO_D1
Disc Size:      42,791,940,315 bytes
Protection:     AACS
BD-Java:        No
BDInfo:         0.5.8

PLAYLIST REPORT:

Name:                   00036.MPLS
Length:                 0:23:21.858 (h:m:s.ms)
Size:                   4,701,315,072 bytes
Total Bitrate:          26.83 Mbps

VIDEO:

Codec                   Bitrate             Description     
-----                   -------             -----------     
MPEG-4 AVC Video        18990 kbps          1080p / 23.976 fps / 16:9 / High Profile 4.1

AUDIO:

Codec                           Language        Bitrate         Description     
-----                           --------        -------         -----------     
Dolby TrueHD Audio              English         1761 kbps       5.1 / 48 kHz / 1761 kbps / 16-bit (AC3 Embedded: 5.1 / 48 kHz / 448 kbps / DN -9dB)
Dolby TrueHD Audio              Japanese        1805 kbps       5.1 / 48 kHz / 1805 kbps / 16-bit (AC3 Embedded: 5.1 / 48 kHz / 448 kbps / DN -10dB)

SUBTITLES:

Codec                           Language        Bitrate         Description     
-----                           --------        -------         -----------     
Presentation Graphics           English         41.804 kbps                     
Presentation Graphics           English         6.416 kbps                      

FILES:

Name            Time In         Length          Size            Total Bitrate   
----            -------         ------          ----            -------------   
00044.M2TS      0:00:00.000     0:23:21.858     4,701,315,072   26,829          

CHAPTERS:

Number          Time In         Length          Avg Video Rate  Max 1-Sec Rate  Max 1-Sec Time  Max 5-Sec Rate  Max 5-Sec Time  Max 10Sec Rate  Max 10Sec Time  Avg Frame Size  Max Frame Size  Max Frame Time  
------          -------         ------          --------------  --------------  --------------  --------------  --------------  --------------  --------------  --------------  --------------  --------------  
1               0:00:00.000     0:01:31.007     21,836 kbps     35,523 kbps     00:01:07.609    32,954 kbps     00:00:13.013    29,239 kbps     00:00:11.011    113,791 bytes   362,842 bytes   00:00:14.055    
2               0:01:31.007     0:09:19.600     19,756 kbps     29,369 kbps     00:08:28.758    26,920 kbps     00:08:06.027    25,635 kbps     00:08:06.152    102,999 bytes   341,276 bytes   00:10:48.481    
3               0:10:50.608     0:10:44.560     18,955 kbps     31,022 kbps     00:18:30.442    26,590 kbps     00:18:30.192    25,383 kbps     00:18:24.520    98,825 bytes    337,494 bytes   00:10:54.612    
4               0:21:35.168     0:01:46.689     12,756 kbps     19,978 kbps     00:22:16.001    19,352 kbps     00:22:12.122    17,087 kbps     00:22:07.409    66,528 bytes    292,774 bytes   00:22:40.984    

STREAM DIAGNOSTICS:

File            PID             Type            Codec           Language                Seconds                 Bitrate                 Bytes           Packets         
----            ---             ----            -----           --------                --------------          --------------          -------------   -----           
00044.M2TS      4113 (0x1011)   0x1B            AVC                                     1401.692                18,992                  3,327,702,999   18,104,946      
00044.M2TS      4352 (0x1100)   0x83            TrueHD          eng (English)           1401.692                2,210                   387,168,266     3,107,960       
00044.M2TS      4353 (0x1101)   0x83            TrueHD          jpn (Japanese)          1401.692                2,253                   394,732,526     3,178,036       
00044.M2TS      4608 (0x1200)   0x90            PGS             eng (English)           1401.692                42                      7,325,479       41,789          
00044.M2TS      4609 (0x1201)   0x90            PGS             eng (English)           1401.692                6                       1,124,230       6,288           

[/code]
<---- END FORUMS PASTE ---->

QUICK SUMMARY:

Disc Title: SAMURAI_CHAMPLOO_D1
Disc Size: 42,791,940,315 bytes
Protection: AACS
BD-Java: No
Playlist: 00036.MPLS
Size: 4,701,315,072 bytes
Length: 0:23:21.858
Total Bitrate: 26.83 Mbps
Video: MPEG-4 AVC Video / 18990 kbps / 1080p / 23.976 fps / 16:9 / High Profile 4.1
Audio: English / Dolby TrueHD Audio / 5.1 / 48 kHz / 1761 kbps / 16-bit (AC3 Embedded: 5.1 / 48 kHz / 448 kbps / DN -9dB)
Audio: Japanese / Dolby TrueHD Audio / 5.1 / 48 kHz / 1805 kbps / 16-bit (AC3 Embedded: 5.1 / 48 kHz / 448 kbps / DN -10dB)
Subtitle: English / 41.804 kbps
Subtitle: English / 6.416 kbps


********************
PLAYLIST: 00031.MPLS
********************

<--- BEGIN FORUMS PASTE --->
[code]
                                                                                                                Total   Video                                             
Title                                                           Codec   Length  Movie Size      Disc Size       Bitrate Bitrate Main Audio Track                          Secondary Audio Track
-----                                                           ------  ------- --------------  --------------  ------- ------- ------------------                        ---------------------
00031.MPLS                                                      AVC     0:23:21 4,729,853,952   42,791,940,315  26.99   18.99   Dolby TrueHD 5.1 1795Kbps (48kHz/16-bit)  
[/code]

[code]

DISC INFO:

Disc Title:     SAMURAI_CHAMPLOO_D1
Disc Size:      42,791,940,315 bytes
Protection:     AACS
BD-Java:        No
BDInfo:         0.5.8

PLAYLIST REPORT:

Name:                   00031.MPLS
Length:                 0:23:21.817 (h:m:s.ms)
Size:                   4,729,853,952 bytes
Total Bitrate:          26.99 Mbps

VIDEO:

Codec                   Bitrate             Description     
-----                   -------             -----------     
MPEG-4 AVC Video        18989 kbps          1080p / 23.976 fps / 16:9 / High Profile 4.1

AUDIO:

Codec                           Language        Bitrate         Description     
-----                           --------        -------         -----------     
Dolby TrueHD Audio              English         1795 kbps       5.1 / 48 kHz / 1795 kbps / 16-bit (AC3 Embedded: 5.1 / 48 kHz / 448 kbps / DN -8dB)
Dolby TrueHD Audio              Japanese        1790 kbps       5.1 / 48 kHz / 1790 kbps / 16-bit (AC3 Embedded: 5.1 / 48 kHz / 448 kbps / DN -7dB)

SUBTITLES:

Codec                           Language        Bitrate         Description     
-----                           --------        -------         -----------     
Presentation Graphics           English         38.786 kbps                     
Presentation Graphics           English         5.258 kbps                      

FILES:

Name            Time In         Length          Size            Total Bitrate   
----            -------         ------          ----            -------------   
00039.M2TS      0:00:00.000     0:23:21.817     4,729,853,952   26,993          

CHAPTERS:

Number          Time In         Length          Avg Video Rate  Max 1-Sec Rate  Max 1-Sec Time  Max 5-Sec Rate  Max 5-Sec Time  Max 10Sec Rate  Max 10Sec Time  Avg Frame Size  Max Frame Size  Max Frame Time  
------          -------         ------          --------------  --------------  --------------  --------------  --------------  --------------  --------------  --------------  --------------  --------------  
1               0:00:00.000     0:01:31.049     24,423 kbps     38,696 kbps     00:01:07.609    35,681 kbps     00:00:13.013    31,909 kbps     00:00:11.011    127,272 bytes   382,041 bytes   00:00:14.055    
2               0:01:31.049     0:08:40.019     19,144 kbps     40,277 kbps     00:10:09.400    30,236 kbps     00:01:31.049    25,508 kbps     00:02:33.695    99,807 bytes    409,500 bytes   00:10:10.276    
3               0:10:11.068     0:11:25.017     18,902 kbps     39,242 kbps     00:10:11.569    26,699 kbps     00:10:11.068    23,836 kbps     00:13:22.051    98,548 bytes    356,944 bytes   00:10:12.069    
4               0:21:36.086     0:01:45.730     14,114 kbps     22,831 kbps     00:22:16.501    21,777 kbps     00:22:12.622    19,248 kbps     00:22:07.784    73,611 bytes    297,513 bytes   00:23:11.640    

STREAM DIAGNOSTICS:

File            PID             Type            Codec           Language                Seconds                 Bitrate                 Bytes           Packets         
----            ---             ----            -----           --------                --------------          --------------          -------------   -----           
00039.M2TS      4113 (0x1011)   0x1B            AVC                                     1401.650                18,992                  3,327,437,663   18,103,468      
00039.M2TS      4352 (0x1100)   0x83            TrueHD          eng (English)           1401.650                2,243                   393,051,496     3,224,699       
00039.M2TS      4353 (0x1101)   0x83            TrueHD          jpn (Japanese)          1401.650                2,238                   392,091,934     3,215,265       
00039.M2TS      4608 (0x1200)   0x90            PGS             eng (English)           1401.650                39                      6,796,274       39,090          
00039.M2TS      4609 (0x1201)   0x90            PGS             eng (English)           1401.650                5                       921,309         5,145           

[/code]
<---- END FORUMS PASTE ---->

QUICK SUMMARY:

Disc Title: SAMURAI_CHAMPLOO_D1
Disc Size: 42,791,940,315 bytes
Protection: AACS
BD-Java: No
Playlist: 00031.MPLS
Size: 4,729,853,952 bytes
Length: 0:23:21.817
Total Bitrate: 26.99 Mbps
Video: MPEG-4 AVC Video / 18989 kbps / 1080p / 23.976 fps / 16:9 / High Profile 4.1
Audio: English / Dolby TrueHD Audio / 5.1 / 48 kHz / 1795 kbps / 16-bit (AC3 Embedded: 5.1 / 48 kHz / 448 kbps / DN -8dB)
Audio: Japanese / Dolby TrueHD Audio / 5.1 / 48 kHz / 1790 kbps / 16-bit (AC3 Embedded: 5.1 / 48 kHz / 448 kbps / DN -7dB)
Subtitle: English / 38.786 kbps
Subtitle: English / 5.258 kbps


********************
PLAYLIST: 00033.MPLS
********************

<--- BEGIN FORUMS PASTE --->
[code]
                                                                                                                Total   Video                                             
Title                                                           Codec   Length  Movie Size      Disc Size       Bitrate Bitrate Main Audio Track                          Secondary Audio Track
-----                                                           ------  ------- --------------  --------------  ------- ------- ------------------                        ---------------------
00033.MPLS                                                      AVC     0:23:21 4,757,544,960   42,791,940,315  27.15   19.00   Dolby TrueHD 5.1 1854Kbps (48kHz/16-bit)  
[/code]

[code]

DISC INFO:

Disc Title:     SAMURAI_CHAMPLOO_D1
Disc Size:      42,791,940,315 bytes
Protection:     AACS
BD-Java:        No
BDInfo:         0.5.8

PLAYLIST REPORT:

Name:                   00033.MPLS
Length:                 0:23:21.733 (h:m:s.ms)
Size:                   4,757,544,960 bytes
Total Bitrate:          27.15 Mbps

VIDEO:

Codec                   Bitrate             Description     
-----                   -------             -----------     
MPEG-4 AVC Video        18999 kbps          1080p / 23.976 fps / 16:9 / High Profile 4.1

AUDIO:

Codec                           Language        Bitrate         Description     
-----                           --------        -------         -----------     
Dolby TrueHD Audio              English         1854 kbps       5.1 / 48 kHz / 1854 kbps / 16-bit (AC3 Embedded: 5.1 / 48 kHz / 448 kbps / DN -10dB)
Dolby TrueHD Audio              Japanese        1840 kbps       5.1 / 48 kHz / 1840 kbps / 16-bit (AC3 Embedded: 5.1 / 48 kHz / 448 kbps / DN -10dB)

SUBTITLES:

Codec                           Language        Bitrate         Description     
-----                           --------        -------         -----------     
Presentation Graphics           English         46.229 kbps                     
Presentation Graphics           English         6.565 kbps                      

FILES:

Name            Time In         Length          Size            Total Bitrate   
----            -------         ------          ----            -------------   
00041.M2TS      0:00:00.000     0:23:21.733     4,757,544,960   27,152          

CHAPTERS:

Number          Time In         Length          Avg Video Rate  Max 1-Sec Rate  Max 1-Sec Time  Max 5-Sec Rate  Max 5-Sec Time  Max 10Sec Rate  Max 10Sec Time  Avg Frame Size  Max Frame Size  Max Frame Time  
------          -------         ------          --------------  --------------  --------------  --------------  --------------  --------------  --------------  --------------  --------------  --------------  
1               0:00:00.000     0:01:31.049     24,071 kbps     37,301 kbps     00:01:07.609    34,663 kbps     00:00:13.013    31,119 kbps     00:00:11.011    125,438 bytes   377,341 bytes   00:00:14.055    
2               0:01:31.049     0:09:46.002     20,211 kbps     27,121 kbps     00:10:49.607    23,866 kbps     00:01:43.686    23,566 kbps     00:01:40.141    105,372 bytes   476,412 bytes   00:11:15.007    
3               0:11:17.051     0:10:18.617     18,085 kbps     31,363 kbps     00:15:49.823    25,743 kbps     00:15:45.819    24,598 kbps     00:15:25.215    94,289 bytes    426,934 bytes   00:11:18.052    
4               0:21:35.669     0:01:46.064     13,276 kbps     21,769 kbps     00:22:15.792    20,779 kbps     00:22:11.788    18,272 kbps     00:22:07.200    69,240 bytes    259,693 bytes   00:22:39.775    

STREAM DIAGNOSTICS:

File            PID             Type            Codec           Language                Seconds                 Bitrate                 Bytes           Packets         
----            ---             ----            -----           --------                --------------          --------------          -------------   -----           
00041.M2TS      4113 (0x1011)   0x1B            AVC                                     1401.567                19,001                  3,328,931,835   18,111,640      
00041.M2TS      4352 (0x1100)   0x83            TrueHD          eng (English)           1401.567                2,302                   403,266,994     3,293,552       
00041.M2TS      4353 (0x1101)   0x83            TrueHD          jpn (Japanese)          1401.567                2,289                   400,938,936     3,273,820       
00041.M2TS      4608 (0x1200)   0x90            PGS             eng (English)           1401.567                46                      8,100,079       46,410          
00041.M2TS      4609 (0x1201)   0x90            PGS             eng (English)           1401.567                7                       1,150,364       6,460           

[/code]
<---- END FORUMS PASTE ---->

QUICK SUMMARY:

Disc Title: SAMURAI_CHAMPLOO_D1
Disc Size: 42,791,940,315 bytes
Protection: AACS
BD-Java: No
Playlist: 00033.MPLS
Size: 4,757,544,960 bytes
Length: 0:23:21.733
Total Bitrate: 27.15 Mbps
Video: MPEG-4 AVC Video / 18999 kbps / 1080p / 23.976 fps / 16:9 / High Profile 4.1
Audio: English / Dolby TrueHD Audio / 5.1 / 48 kHz / 1854 kbps / 16-bit (AC3 Embedded: 5.1 / 48 kHz / 448 kbps / DN -10dB)
Audio: Japanese / Dolby TrueHD Audio / 5.1 / 48 kHz / 1840 kbps / 16-bit (AC3 Embedded: 5.1 / 48 kHz / 448 kbps / DN -10dB)
Subtitle: English / 46.229 kbps
Subtitle: English / 6.565 kbps


********************
PLAYLIST: 00029.MPLS
********************

<--- BEGIN FORUMS PASTE --->
[code]
                                                                                                                Total   Video                                             
Title                                                           Codec   Length  Movie Size      Disc Size       Bitrate Bitrate Main Audio Track                          Secondary Audio Track
-----                                                           ------  ------- --------------  --------------  ------- ------- ------------------                        ---------------------
00029.MPLS                                                      AVC     0:23:21 4,746,319,872   42,791,940,315  27.09   19.00   Dolby TrueHD 5.1 1862Kbps (48kHz/16-bit)  
[/code]

[code]

DISC INFO:

Disc Title:     SAMURAI_CHAMPLOO_D1
Disc Size:      42,791,940,315 bytes
Protection:     AACS
BD-Java:        No
BDInfo:         0.5.8

PLAYLIST REPORT:

Name:                   00029.MPLS
Length:                 0:23:21.650 (h:m:s.ms)
Size:                   4,746,319,872 bytes
Total Bitrate:          27.09 Mbps

VIDEO:

Codec                   Bitrate             Description     
-----                   -------             -----------     
MPEG-4 AVC Video        18997 kbps          1080p / 23.976 fps / 16:9 / High Profile 4.1

AUDIO:

Codec                           Language        Bitrate         Description     
-----                           --------        -------         -----------     
Dolby TrueHD Audio              English         1862 kbps       5.1 / 48 kHz / 1862 kbps / 16-bit (AC3 Embedded: 5.1 / 48 kHz / 448 kbps / DN -8dB)
Dolby TrueHD Audio              Japanese        1860 kbps       5.1 / 48 kHz / 1860 kbps / 16-bit (AC3 Embedded: 5.1 / 48 kHz / 448 kbps / DN -8dB)

SUBTITLES:

Codec                           Language        Bitrate         Description     
-----                           --------        -------         -----------     
Presentation Graphics           English         30.763 kbps                     
Presentation Graphics           English         5.119 kbps                      

FILES:

Name            Time In         Length          Size            Total Bitrate   
----            -------         ------          ----            -------------   
00037.M2TS      0:00:00.000     0:23:21.650     4,746,319,872   27,090          

CHAPTERS:

Number          Time In         Length          Avg Video Rate  Max 1-Sec Rate  Max 1-Sec Time  Max 5-Sec Rate  Max 5-Sec Time  Max 10Sec Rate  Max 10Sec Time  Avg Frame Size  Max Frame Size  Max Frame Time  
------          -------         ------          --------------  --------------  --------------  --------------  --------------  --------------  --------------  --------------  --------------  --------------  
1               0:00:00.000     0:01:31.007     22,428 kbps     36,699 kbps     00:01:07.776    33,953 kbps     00:00:13.013    30,291 kbps     00:00:11.011    116,878 bytes   373,129 bytes   00:01:08.068    
2               0:01:31.007     0:09:23.813     19,352 kbps     39,006 kbps     00:02:35.071    26,067 kbps     00:04:04.869    25,380 kbps     00:02:35.071    100,895 bytes   310,564 bytes   00:06:52.412    
3               0:10:54.820     0:10:41.057     19,093 kbps     39,280 kbps     00:11:57.216    34,608 kbps     00:11:55.089    30,431 kbps     00:11:55.089    99,542 bytes    264,234 bytes   00:10:59.325    
4               0:21:35.877     0:01:45.772     13,571 kbps     22,038 kbps     00:22:16.293    21,024 kbps     00:22:12.414    18,783 kbps     00:22:07.701    70,781 bytes    287,905 bytes   00:23:11.431    

STREAM DIAGNOSTICS:

File            PID             Type            Codec           Language                Seconds                 Bitrate                 Bytes           Packets         
----            ---             ----            -----           --------                --------------          --------------          -------------   -----           
00037.M2TS      4113 (0x1011)   0x1B            AVC                                     1401.483                19,000                  3,328,438,345   18,108,864      
00037.M2TS      4352 (0x1100)   0x83            TrueHD          eng (English)           1401.483                2,311                   404,810,554     3,271,843       
00037.M2TS      4353 (0x1101)   0x83            TrueHD          jpn (Japanese)          1401.483                2,308                   404,382,428     3,256,770       
00037.M2TS      4608 (0x1200)   0x90            PGS             eng (English)           1401.483                31                      5,389,939       30,948          
00037.M2TS      4609 (0x1201)   0x90            PGS             eng (English)           1401.483                5                       896,925         5,006           

[/code]
<---- END FORUMS PASTE ---->

QUICK SUMMARY:

Disc Title: SAMURAI_CHAMPLOO_D1
Disc Size: 42,791,940,315 bytes
Protection: AACS
BD-Java: No
Playlist: 00029.MPLS
Size: 4,746,319,872 bytes
Length: 0:23:21.650
Total Bitrate: 27.09 Mbps
Video: MPEG-4 AVC Video / 18997 kbps / 1080p / 23.976 fps / 16:9 / High Profile 4.1
Audio: English / Dolby TrueHD Audio / 5.1 / 48 kHz / 1862 kbps / 16-bit (AC3 Embedded: 5.1 / 48 kHz / 448 kbps / DN -8dB)
Audio: Japanese / Dolby TrueHD Audio / 5.1 / 48 kHz / 1860 kbps / 16-bit (AC3 Embedded: 5.1 / 48 kHz / 448 kbps / DN -8dB)
Subtitle: English / 30.763 kbps
Subtitle: English / 5.119 kbps


********************
PLAYLIST: 00028.MPLS
********************

<--- BEGIN FORUMS PASTE --->
[code]
                                                                                                                Total   Video                                             
Title                                                           Codec   Length  Movie Size      Disc Size       Bitrate Bitrate Main Audio Track                          Secondary Audio Track
-----                                                           ------  ------- --------------  --------------  ------- ------- ------------------                        ---------------------
00028.MPLS                                                      AVC     0:23:21 4,702,224,384   42,791,940,315  26.84   19.00   Dolby TrueHD 5.1 1807Kbps (48kHz/16-bit)  
[/code]

[code]

DISC INFO:

Disc Title:     SAMURAI_CHAMPLOO_D1
Disc Size:      42,791,940,315 bytes
Protection:     AACS
BD-Java:        No
BDInfo:         0.5.8

PLAYLIST REPORT:

Name:                   00028.MPLS
Length:                 0:23:21.400 (h:m:s.ms)
Size:                   4,702,224,384 bytes
Total Bitrate:          26.84 Mbps

VIDEO:

Codec                   Bitrate             Description     
-----                   -------             -----------     
MPEG-4 AVC Video        18997 kbps          1080p / 23.976 fps / 16:9 / High Profile 4.1

AUDIO:

Codec                           Language        Bitrate         Description     
-----                           --------        -------         -----------     
Dolby TrueHD Audio              English         1807 kbps       5.1 / 48 kHz / 1807 kbps / 16-bit (AC3 Embedded: 5.1 / 48 kHz / 448 kbps / DN -10dB)
Dolby TrueHD Audio              Japanese        1810 kbps       5.1 / 48 kHz / 1810 kbps / 16-bit (AC3 Embedded: 5.1 / 48 kHz / 448 kbps / DN -10dB)

SUBTITLES:

Codec                           Language        Bitrate         Description     
-----                           --------        -------         -----------     
Presentation Graphics           English         36.287 kbps                     
Presentation Graphics           English         5.163 kbps                      

FILES:

Name            Time In         Length          Size            Total Bitrate   
----            -------         ------          ----            -------------   
00036.M2TS      0:00:00.000     0:23:21.400     4,702,224,384   26,843          

CHAPTERS:

Number          Time In         Length          Avg Video Rate  Max 1-Sec Rate  Max 1-Sec Time  Max 5-Sec Rate  Max 5-Sec Time  Max 10Sec Rate  Max 10Sec Time  Avg Frame Size  Max Frame Size  Max Frame Time  
------          -------         ------          --------------  --------------  --------------  --------------  --------------  --------------  --------------  --------------  --------------  --------------  
1               0:00:00.000     0:01:31.007     21,144 kbps     35,847 kbps     00:01:07.734    32,637 kbps     00:00:13.013    28,939 kbps     00:00:11.011    110,184 bytes   366,025 bytes   00:00:14.055    
2               0:01:31.007     0:10:53.611     19,726 kbps     34,687 kbps     00:11:05.081    28,474 kbps     00:02:32.861    26,756 kbps     00:02:26.896    102,842 bytes   486,113 bytes   00:12:23.576    
3               0:12:24.618     0:09:09.966     18,929 kbps     37,926 kbps     00:19:51.815    33,754 kbps     00:12:29.749    31,010 kbps     00:12:26.579    98,688 bytes    465,839 bytes   00:12:25.619    
4               0:21:34.584     0:01:46.815     13,054 kbps     21,391 kbps     00:22:15.417    20,459 kbps     00:22:11.538    18,018 kbps     00:22:06.700    68,085 bytes    283,349 bytes   00:23:10.555    

STREAM DIAGNOSTICS:

File            PID             Type            Codec           Language                Seconds                 Bitrate                 Bytes           Packets         
----            ---             ----            -----           --------                --------------          --------------          -------------   -----           
00036.M2TS      4113 (0x1011)   0x1B            AVC                                     1401.233                18,999                  3,327,778,454   18,105,240      
00036.M2TS      4352 (0x1100)   0x83            TrueHD          eng (English)           1401.233                2,255                   394,933,206     3,156,518       
00036.M2TS      4353 (0x1101)   0x83            TrueHD          jpn (Japanese)          1401.233                2,259                   395,602,560     3,140,223       
00036.M2TS      4608 (0x1200)   0x90            PGS             eng (English)           1401.233                36                      6,356,495       36,736          
00036.M2TS      4609 (0x1201)   0x90            PGS             eng (English)           1401.233                5                       904,427         5,046           

[/code]
<---- END FORUMS PASTE ---->

QUICK SUMMARY:

Disc Title: SAMURAI_CHAMPLOO_D1
Disc Size: 42,791,940,315 bytes
Protection: AACS
BD-Java: No
Playlist: 00028.MPLS
Size: 4,702,224,384 bytes
Length: 0:23:21.400
Total Bitrate: 26.84 Mbps
Video: MPEG-4 AVC Video / 18997 kbps / 1080p / 23.976 fps / 16:9 / High Profile 4.1
Audio: English / Dolby TrueHD Audio / 5.1 / 48 kHz / 1807 kbps / 16-bit (AC3 Embedded: 5.1 / 48 kHz / 448 kbps / DN -10dB)
Audio: Japanese / Dolby TrueHD Audio / 5.1 / 48 kHz / 1810 kbps / 16-bit (AC3 Embedded: 5.1 / 48 kHz / 448 kbps / DN -10dB)
Subtitle: English / 36.287 kbps
Subtitle: English / 5.163 kbps


********************
PLAYLIST: 00006.MPLS
********************

<--- BEGIN FORUMS PASTE --->
[code]
                                                                                                                Total   Video                                             
Title                                                           Codec   Length  Movie Size      Disc Size       Bitrate Bitrate Main Audio Track                          Secondary Audio Track
-----                                                           ------  ------- --------------  --------------  ------- ------- ------------------                        ---------------------
00006.MPLS                                                      AVC     0:01:39 203,931,648     42,791,940,315  16.44   15.00   DD AC3 2.0 640Kbps                        
[/code]

[code]

DISC INFO:

Disc Title:     SAMURAI_CHAMPLOO_D1
Disc Size:      42,791,940,315 bytes
Protection:     AACS
BD-Java:        No
BDInfo:         0.5.8

PLAYLIST REPORT:

Name:                   00006.MPLS
Length:                 0:01:39.224 (h:m:s.ms)
Size:                   203,931,648 bytes
Total Bitrate:          16.44 Mbps

VIDEO:

Codec                   Bitrate             Description     
-----                   -------             -----------     
MPEG-4 AVC Video        14996 kbps          1080p / 23.976 fps / 16:9 / High Profile 4.1

AUDIO:

Codec                           Language        Bitrate         Description     
-----                           --------        -------         -----------     
Dolby Digital Audio             English         640 kbps        2.0 / 48 kHz / 640 kbps / DN -4dB

FILES:

Name            Time In         Length          Size            Total Bitrate   
----            -------         ------          ----            -------------   
00005.M2TS      0:00:00.000     0:01:39.224     203,931,648     16,442          

CHAPTERS:

Number          Time In         Length          Avg Video Rate  Max 1-Sec Rate  Max 1-Sec Time  Max 5-Sec Rate  Max 5-Sec Time  Max 10Sec Rate  Max 10Sec Time  Avg Frame Size  Max Frame Size  Max Frame Time  
------          -------         ------          --------------  --------------  --------------  --------------  --------------  --------------  --------------  --------------  --------------  --------------  
1               0:00:00.000     0:01:39.224     14,996 kbps     32,417 kbps     00:00:51.509    23,074 kbps     00:00:24.357    21,419 kbps     00:00:21.312    78,184 bytes    518,574 bytes   00:00:16.099    

STREAM DIAGNOSTICS:

File            PID             Type            Codec           Language                Seconds                 Bitrate                 Bytes           Packets         
----            ---             ----            -----           --------                --------------          --------------          -------------   -----           
00005.M2TS      4113 (0x1011)   0x1B            AVC                                     99.057                  15,022                  185,999,094     1,012,275       
00005.M2TS      4352 (0x1100)   0x81            AC3             eng (English)           99.057                  641                     7,938,560       46,515          

[/code]
<---- END FORUMS PASTE ---->

QUICK SUMMARY:

Disc Title: SAMURAI_CHAMPLOO_D1
Disc Size: 42,791,940,315 bytes
Protection: AACS
BD-Java: No
Playlist: 00006.MPLS
Size: 203,931,648 bytes
Length: 0:01:39.224
Total Bitrate: 16.44 Mbps
Video: MPEG-4 AVC Video / 14996 kbps / 1080p / 23.976 fps / 16:9 / High Profile 4.1
Audio: English / Dolby Digital Audio / 2.0 / 48 kHz / 640 kbps / DN -4dB