Disc Title:     BoyAndBeast
Disc Size:      42,863,848,041 bytes
Protection:     AACS
BD-Java:        No
BDInfo:         0.5.8

Notes:          

BDINFO HOME:
  Cinema Squid
    http://www.cinemasquid.com/blu-ray/tools/bdinfo

INCLUDES FORUMS REPORT FOR:
  AVS Forum Blu-ray Audio and Video Specifications Thread
    http://www.avsforum.com/avs-vb/showthread.php?t=1155731


********************
PLAYLIST: 00001.MPLS
********************

<--- BEGIN FORUMS PASTE --->
[code]
                                                                                                                Total   Video                                             
Title                                                           Codec   Length  Movie Size      Disc Size       Bitrate Bitrate Main Audio Track                          Secondary Audio Track
-----                                                           ------  ------- --------------  --------------  ------- ------- ------------------                        ---------------------
00001.MPLS                                                      AVC     1:59:17 39,974,510,592  42,863,848,041  44.68   34.07   Dolby TrueHD 5.1 3334Kbps (96kHz/16-bit)  
[/code]

[code]

DISC INFO:

Disc Title:     BoyAndBeast
Disc Size:      42,863,848,041 bytes
Protection:     AACS
BD-Java:        No
BDInfo:         0.5.8

PLAYLIST REPORT:

Name:                   00001.MPLS
Length:                 1:59:17.859 (h:m:s.ms)
Size:                   39,974,510,592 bytes
Total Bitrate:          44.68 Mbps

VIDEO:

Codec                   Bitrate             Description     
-----                   -------             -----------     
MPEG-4 AVC Video        34073 kbps          1080p / 23.976 fps / 16:9 / High Profile 4.1

AUDIO:

Codec                           Language        Bitrate         Description     
-----                           --------        -------         -----------     
Dolby TrueHD Audio              English         3334 kbps       5.1 / 96 kHz / 3334 kbps / 16-bit (AC3 Embedded: )
Dolby TrueHD Audio              Japanese        3345 kbps       5.1 / 96 kHz / 3345 kbps / 16-bit (AC3 Embedded: )

SUBTITLES:

Codec                           Language        Bitrate         Description     
-----                           --------        -------         -----------     
Presentation Graphics           English         37.867 kbps                     
Presentation Graphics           English         1.236 kbps                      

FILES:

Name            Time In         Length          Size            Total Bitrate   
----            -------         ------          ----            -------------   
00033.M2TS      0:00:00.000     0:29:34.230     10,017,976,320  45,171          
00036.M2TS      0:29:34.230     0:33:00.603     11,191,197,696  45,203          
00037.M2TS      1:02:34.834     0:30:42.507     10,425,544,704  45,267          
00038.M2TS      1:33:17.341     0:25:50.006     8,325,771,264   42,972          
00001.M2TS      1:59:07.348     0:00:10.010     13,633,536      10,896          
00034.M2TS      1:59:17.358     0:00:00.500     387,072         6,187           

CHAPTERS:

Number          Time In         Length          Avg Video Rate  Max 1-Sec Rate  Max 1-Sec Time  Max 5-Sec Rate  Max 5-Sec Time  Max 10Sec Rate  Max 10Sec Time  Avg Frame Size  Max Frame Size  Max Frame Time  
------          -------         ------          --------------  --------------  --------------  --------------  --------------  --------------  --------------  --------------  --------------  --------------  
1               0:00:00.000     0:07:01.421     31,462 kbps     41,700 kbps     00:03:00.180    39,209 kbps     00:05:32.999    38,616 kbps     00:01:24.501    164,012 bytes   538,911 bytes   00:02:54.132    
2               0:07:01.421     0:11:02.036     35,023 kbps     41,959 kbps     00:17:31.008    39,523 kbps     00:17:27.004    39,179 kbps     00:17:22.249    182,595 bytes   546,350 bytes   00:17:21.331    
3               0:18:03.457     0:11:30.773     35,655 kbps     42,859 kbps     00:18:55.884    39,584 kbps     00:19:40.804    39,070 kbps     00:19:47.144    185,891 bytes   636,312 bytes   00:18:52.798    
4               0:29:34.230     0:08:32.553     36,374 kbps     42,013 kbps     00:30:51.182    39,428 kbps     00:33:52.905    39,178 kbps     00:33:38.099    189,639 bytes   639,448 bytes   00:35:26.916    
5               0:38:06.784     0:07:28.030     33,304 kbps     42,039 kbps     00:39:50.221    39,157 kbps     00:39:56.435    38,740 kbps     00:39:53.182    173,630 bytes   601,213 bytes   00:39:50.262    
6               0:45:34.815     0:10:19.577     34,973 kbps     42,548 kbps     00:48:59.645    39,644 kbps     00:48:55.641    39,050 kbps     00:47:30.889    182,334 bytes   631,006 bytes   00:48:49.051    
7               0:55:54.392     0:06:40.441     34,657 kbps     42,730 kbps     00:59:30.108    39,512 kbps     00:58:20.330    38,909 kbps     01:00:31.502    180,684 bytes   629,545 bytes   00:55:55.393    
8               1:02:34.834     0:06:08.701     35,389 kbps     41,498 kbps     01:06:52.508    39,430 kbps     01:06:55.469    39,029 kbps     01:06:56.095    184,501 bytes   632,044 bytes   01:04:08.678    
9               1:08:43.536     0:08:03.357     34,131 kbps     42,104 kbps     01:14:49.193    39,615 kbps     01:10:16.211    38,785 kbps     01:15:35.697    177,941 bytes   605,794 bytes   01:15:25.729    
10              1:16:46.893     0:10:42.641     35,622 kbps     42,494 kbps     01:23:38.972    39,551 kbps     01:24:02.162    39,152 kbps     01:23:57.240    185,715 bytes   633,235 bytes   01:18:39.131    
11              1:27:29.535     0:05:47.805     33,031 kbps     42,578 kbps     01:30:45.523    39,293 kbps     01:31:34.572    39,043 kbps     01:31:29.567    172,209 bytes   559,929 bytes   01:30:46.440    
12              1:33:17.341     0:09:05.920     35,201 kbps     42,589 kbps     01:33:23.055    39,604 kbps     01:37:01.106    39,200 kbps     01:36:55.142    183,523 bytes   593,176 bytes   01:41:00.179    
13              1:42:23.262     0:06:30.932     35,197 kbps     41,217 kbps     01:43:50.390    39,154 kbps     01:43:40.756    38,472 kbps     01:44:53.412    183,503 bytes   492,298 bytes   01:42:44.032    
14              1:48:54.194     0:05:10.476     33,692 kbps     40,970 kbps     01:51:10.497    38,652 kbps     01:51:11.456    37,470 kbps     01:51:06.868    175,653 bytes   578,119 bytes   01:51:53.123    
15              1:54:04.671     0:05:02.677     20,771 kbps     38,666 kbps     01:56:02.914    36,317 kbps     01:58:19.926    34,962 kbps     01:58:18.925    108,291 bytes   638,588 bytes   01:58:25.932    
16              1:59:07.348     0:00:10.510     4,780 kbps      5,725 kbps      01:59:13.437    5,530 kbps      01:59:11.352    4,987 kbps      01:59:07.348    25,018 bytes    619,484 bytes   01:59:14.355    

STREAM DIAGNOSTICS:

File            PID             Type            Codec           Language                Seconds                 Bitrate                 Bytes           Packets         
----            ---             ----            -----           --------                --------------          --------------          -------------   -----           
00033.M2TS      4113 (0x1011)   0x1B            AVC                                     1774.106                34,424                  7,633,968,050   41,513,848      
00033.M2TS      4352 (0x1100)   0x83            TrueHD          eng (English)           1774.106                3,398                   753,522,420     5,207,251       
00033.M2TS      4353 (0x1101)   0x83            TrueHD          jpn (Japanese)          1774.106                3,444                   763,778,060     5,351,137       
00033.M2TS      4608 (0x1200)   0x90            PGS             eng (English)           1774.106                35                      7,817,477       45,154          
00033.M2TS      4609 (0x1201)   0x90            PGS             eng (English)           1774.106                0                       18,209          112             
00036.M2TS      4113 (0x1011)   0x1B            AVC                                     1980.437                34,897                  8,638,802,716   46,977,739      
00036.M2TS      4352 (0x1100)   0x83            TrueHD          eng (English)           1980.437                3,240                   802,187,536     5,562,670       
00036.M2TS      4353 (0x1101)   0x83            TrueHD          jpn (Japanese)          1980.437                3,225                   798,313,274     5,616,138       
00036.M2TS      4608 (0x1200)   0x90            PGS             eng (English)           1980.437                45                      11,117,633      63,992          
00036.M2TS      4609 (0x1201)   0x90            PGS             eng (English)           1980.437                0                       98,736          578             
00037.M2TS      4113 (0x1011)   0x1B            AVC                                     1842.382                34,699                  7,990,997,931   43,455,136      
00037.M2TS      4352 (0x1100)   0x83            TrueHD          eng (English)           1842.382                3,261                   751,002,344     5,315,983       
00037.M2TS      4353 (0x1101)   0x83            TrueHD          jpn (Japanese)          1842.382                3,261                   751,009,962     5,412,167       
00037.M2TS      4608 (0x1200)   0x90            PGS             eng (English)           1842.382                41                      9,413,219       54,294          
00037.M2TS      4609 (0x1201)   0x90            PGS             eng (English)           1842.382                0                       67,097          393             
00038.M2TS      4113 (0x1011)   0x1B            AVC                                     1549.923                32,080                  6,215,217,814   33,799,981      
00038.M2TS      4352 (0x1100)   0x83            TrueHD          eng (English)           1549.923                3,480                   674,223,476     4,709,718       
00038.M2TS      4353 (0x1101)   0x83            TrueHD          jpn (Japanese)          1549.923                3,503                   678,646,608     4,764,666       
00038.M2TS      4608 (0x1200)   0x90            PGS             eng (English)           1549.923                29                      5,532,638       31,812          
00038.M2TS      4609 (0x1201)   0x90            PGS             eng (English)           1549.923                5                       921,992         5,281           
00001.M2TS      4113 (0x1011)   0x1B            AVC                                     9.885                   5,508                   6,805,173       37,120          
00001.M2TS      4352 (0x1100)   0x83            TrueHD          eng (English)           9.885                   1,378                   1,702,178       16,802          
00001.M2TS      4353 (0x1101)   0x83            TrueHD          jpn (Japanese)          9.885                   750                     926,546         16,707          
00001.M2TS      4608 (0x1200)   0x90            PGS             eng (English)           9.885                   0                       70              7               
00001.M2TS      4609 (0x1201)   0x90            PGS             eng (English)           9.885                   0                       70              7               
00034.M2TS      4113 (0x1011)   0x1B            AVC                                     0.334                   1,049                   43,769          248             
00034.M2TS      4352 (0x1100)   0x83            TrueHD          eng (English)           0.334                   2,050                   85,518          847             
00034.M2TS      4353 (0x1101)   0x83            TrueHD          jpn (Japanese)          0.334                   1,134                   47,304          841             
00034.M2TS      4608 (0x1200)   0x90            PGS             eng (English)           0.334                   2                       70              7               
00034.M2TS      4609 (0x1201)   0x90            PGS             eng (English)           0.334                   2                       70              7               

[/code]
<---- END FORUMS PASTE ---->

QUICK SUMMARY:

Disc Title: BoyAndBeast
Disc Size: 42,863,848,041 bytes
Protection: AACS
BD-Java: No
Playlist: 00001.MPLS
Size: 39,974,510,592 bytes
Length: 1:59:17.859
Total Bitrate: 44.68 Mbps
Video: MPEG-4 AVC Video / 34073 kbps / 1080p / 23.976 fps / 16:9 / High Profile 4.1
Audio: English / Dolby TrueHD Audio / 5.1 / 96 kHz / 3334 kbps / 16-bit (AC3 Embedded: )
Audio: Japanese / Dolby TrueHD Audio / 5.1 / 96 kHz / 3345 kbps / 16-bit (AC3 Embedded: )
Subtitle: English / 37.867 kbps
Subtitle: English / 1.236 kbps


********************
PLAYLIST: 00031.MPLS
********************

<--- BEGIN FORUMS PASTE --->
[code]
                                                                                                                Total   Video                                             
Title                                                           Codec   Length  Movie Size      Disc Size       Bitrate Bitrate Main Audio Track                          Secondary Audio Track
-----                                                           ------  ------- --------------  --------------  ------- ------- ------------------                        ---------------------
00031.MPLS                                                      AVC     0:33:00 11,191,197,696  42,863,848,041  45.20   34.89   Dolby TrueHD 5.1 3240Kbps (96kHz/16-bit)  
[/code]

[code]

DISC INFO:

Disc Title:     BoyAndBeast
Disc Size:      42,863,848,041 bytes
Protection:     AACS
BD-Java:        No
BDInfo:         0.5.8

PLAYLIST REPORT:

Name:                   00031.MPLS
Length:                 0:33:00.603 (h:m:s.ms)
Size:                   11,191,197,696 bytes
Total Bitrate:          45.20 Mbps

VIDEO:

Codec                   Bitrate             Description     
-----                   -------             -----------     
MPEG-4 AVC Video        34894 kbps          1080p / 23.976 fps / 16:9 / High Profile 4.1

AUDIO:

Codec                           Language        Bitrate         Description     
-----                           --------        -------         -----------     
Dolby TrueHD Audio              English         3240 kbps       5.1 / 96 kHz / 3240 kbps / 16-bit (AC3 Embedded: )
Dolby TrueHD Audio              Japanese        3225 kbps       5.1 / 96 kHz / 3225 kbps / 16-bit (AC3 Embedded: )

SUBTITLES:

Codec                           Language        Bitrate         Description     
-----                           --------        -------         -----------     
Presentation Graphics           English         44.906 kbps                     
Presentation Graphics           English         0.399 kbps                      

FILES:

Name            Time In         Length          Size            Total Bitrate   
----            -------         ------          ----            -------------   
00036.M2TS      0:00:00.000     0:33:00.603     11,191,197,696  45,203          

CHAPTERS:

Number          Time In         Length          Avg Video Rate  Max 1-Sec Rate  Max 1-Sec Time  Max 5-Sec Rate  Max 5-Sec Time  Max 10Sec Rate  Max 10Sec Time  Avg Frame Size  Max Frame Size  Max Frame Time  
------          -------         ------          --------------  --------------  --------------  --------------  --------------  --------------  --------------  --------------  --------------  --------------  
1               0:00:00.000     0:08:32.553     36,381 kbps     42,013 kbps     00:01:16.951    39,428 kbps     00:04:18.675    39,178 kbps     00:04:03.868    189,659 bytes   639,448 bytes   00:05:52.685    
2               0:08:32.553     0:07:28.030     33,304 kbps     42,039 kbps     00:10:15.990    39,157 kbps     00:10:22.204    38,740 kbps     00:10:18.951    173,630 bytes   601,213 bytes   00:10:16.032    
3               0:16:00.584     0:10:19.577     34,973 kbps     42,548 kbps     00:19:25.414    39,644 kbps     00:19:21.410    39,050 kbps     00:17:56.658    182,334 bytes   631,006 bytes   00:19:14.820    
4               0:26:20.161     0:06:40.441     34,646 kbps     42,730 kbps     00:29:55.877    39,512 kbps     00:28:46.099    38,909 kbps     00:30:57.272    180,645 bytes   629,545 bytes   00:26:21.162    

STREAM DIAGNOSTICS:

File            PID             Type            Codec           Language                Seconds                 Bitrate                 Bytes           Packets         
----            ---             ----            -----           --------                --------------          --------------          -------------   -----           
00036.M2TS      4113 (0x1011)   0x1B            AVC                                     1980.437                34,897                  8,638,802,716   46,977,739      
00036.M2TS      4352 (0x1100)   0x83            TrueHD          eng (English)           1980.437                3,240                   802,187,536     5,562,670       
00036.M2TS      4353 (0x1101)   0x83            TrueHD          jpn (Japanese)          1980.437                3,225                   798,313,274     5,616,138       
00036.M2TS      4608 (0x1200)   0x90            PGS             eng (English)           1980.437                45                      11,117,633      63,992          
00036.M2TS      4609 (0x1201)   0x90            PGS             eng (English)           1980.437                0                       98,736          578             

[/code]
<---- END FORUMS PASTE ---->

QUICK SUMMARY:

Disc Title: BoyAndBeast
Disc Size: 42,863,848,041 bytes
Protection: AACS
BD-Java: No
Playlist: 00031.MPLS
Size: 11,191,197,696 bytes
Length: 0:33:00.603
Total Bitrate: 45.20 Mbps
Video: MPEG-4 AVC Video / 34894 kbps / 1080p / 23.976 fps / 16:9 / High Profile 4.1
Audio: English / Dolby TrueHD Audio / 5.1 / 96 kHz / 3240 kbps / 16-bit (AC3 Embedded: )
Audio: Japanese / Dolby TrueHD Audio / 5.1 / 96 kHz / 3225 kbps / 16-bit (AC3 Embedded: )
Subtitle: English / 44.906 kbps
Subtitle: English / 0.399 kbps


********************
PLAYLIST: 00032.MPLS
********************

<--- BEGIN FORUMS PASTE --->
[code]
                                                                                                                Total   Video                                             
Title                                                           Codec   Length  Movie Size      Disc Size       Bitrate Bitrate Main Audio Track                          Secondary Audio Track
-----                                                           ------  ------- --------------  --------------  ------- ------- ------------------                        ---------------------
00032.MPLS                                                      AVC     0:30:42 10,425,544,704  42,863,848,041  45.27   34.70   Dolby TrueHD 5.1 3261Kbps (96kHz/16-bit)  
[/code]

[code]

DISC INFO:

Disc Title:     BoyAndBeast
Disc Size:      42,863,848,041 bytes
Protection:     AACS
BD-Java:        No
BDInfo:         0.5.8

PLAYLIST REPORT:

Name:                   00032.MPLS
Length:                 0:30:42.507 (h:m:s.ms)
Size:                   10,425,544,704 bytes
Total Bitrate:          45.27 Mbps

VIDEO:

Codec                   Bitrate             Description     
-----                   -------             -----------     
MPEG-4 AVC Video        34696 kbps          1080p / 23.976 fps / 16:9 / High Profile 4.1

AUDIO:

Codec                           Language        Bitrate         Description     
-----                           --------        -------         -----------     
Dolby TrueHD Audio              English         3261 kbps       5.1 / 96 kHz / 3261 kbps / 16-bit (AC3 Embedded: )
Dolby TrueHD Audio              Japanese        3261 kbps       5.1 / 96 kHz / 3261 kbps / 16-bit (AC3 Embedded: )

SUBTITLES:

Codec                           Language        Bitrate         Description     
-----                           --------        -------         -----------     
Presentation Graphics           English         40.871 kbps                     
Presentation Graphics           English         0.291 kbps                      

FILES:

Name            Time In         Length          Size            Total Bitrate   
----            -------         ------          ----            -------------   
00037.M2TS      0:00:00.000     0:30:42.507     10,425,544,704  45,267          

CHAPTERS:

Number          Time In         Length          Avg Video Rate  Max 1-Sec Rate  Max 1-Sec Time  Max 5-Sec Rate  Max 5-Sec Time  Max 10Sec Rate  Max 10Sec Time  Avg Frame Size  Max Frame Size  Max Frame Time  
------          -------         ------          --------------  --------------  --------------  --------------  --------------  --------------  --------------  --------------  --------------  --------------  
1               0:00:00.000     0:06:08.701     35,401 kbps     41,498 kbps     00:04:17.674    39,430 kbps     00:04:20.635    39,029 kbps     00:04:21.261    184,543 bytes   632,044 bytes   00:01:33.843    
2               0:06:08.701     0:08:03.357     34,131 kbps     42,104 kbps     00:12:14.358    39,615 kbps     00:07:41.377    38,785 kbps     00:13:00.863    177,941 bytes   605,794 bytes   00:12:50.895    
3               0:14:12.059     0:10:42.642     35,622 kbps     42,494 kbps     00:21:04.137    39,551 kbps     00:21:27.327    39,152 kbps     00:21:22.406    185,715 bytes   633,235 bytes   00:16:04.296    
4               0:24:54.701     0:05:47.805     33,025 kbps     42,578 kbps     00:28:10.689    39,293 kbps     00:28:59.738    39,043 kbps     00:28:54.733    172,199 bytes   559,929 bytes   00:28:11.606    

STREAM DIAGNOSTICS:

File            PID             Type            Codec           Language                Seconds                 Bitrate                 Bytes           Packets         
----            ---             ----            -----           --------                --------------          --------------          -------------   -----           
00037.M2TS      4113 (0x1011)   0x1B            AVC                                     1842.382                34,699                  7,990,997,931   43,455,136      
00037.M2TS      4352 (0x1100)   0x83            TrueHD          eng (English)           1842.382                3,261                   751,002,344     5,315,983       
00037.M2TS      4353 (0x1101)   0x83            TrueHD          jpn (Japanese)          1842.382                3,261                   751,009,962     5,412,167       
00037.M2TS      4608 (0x1200)   0x90            PGS             eng (English)           1842.382                41                      9,413,219       54,294          
00037.M2TS      4609 (0x1201)   0x90            PGS             eng (English)           1842.382                0                       67,097          393             

[/code]
<---- END FORUMS PASTE ---->

QUICK SUMMARY:

Disc Title: BoyAndBeast
Disc Size: 42,863,848,041 bytes
Protection: AACS
BD-Java: No
Playlist: 00032.MPLS
Size: 10,425,544,704 bytes
Length: 0:30:42.507
Total Bitrate: 45.27 Mbps
Video: MPEG-4 AVC Video / 34696 kbps / 1080p / 23.976 fps / 16:9 / High Profile 4.1
Audio: English / Dolby TrueHD Audio / 5.1 / 96 kHz / 3261 kbps / 16-bit (AC3 Embedded: )
Audio: Japanese / Dolby TrueHD Audio / 5.1 / 96 kHz / 3261 kbps / 16-bit (AC3 Embedded: )
Subtitle: English / 40.871 kbps
Subtitle: English / 0.291 kbps


********************
PLAYLIST: 00029.MPLS
********************

<--- BEGIN FORUMS PASTE --->
[code]
                                                                                                                Total   Video                                             
Title                                                           Codec   Length  Movie Size      Disc Size       Bitrate Bitrate Main Audio Track                          Secondary Audio Track
-----                                                           ------  ------- --------------  --------------  ------- ------- ------------------                        ---------------------
00029.MPLS                                                      AVC     0:29:34 10,017,976,320  42,863,848,041  45.17   34.42   Dolby TrueHD 5.1 2950Kbps (96kHz/16-bit)  
[/code]

[code]

DISC INFO:

Disc Title:     BoyAndBeast
Disc Size:      42,863,848,041 bytes
Protection:     AACS
BD-Java:        No
BDInfo:         0.5.8

PLAYLIST REPORT:

Name:                   00029.MPLS
Length:                 0:29:34.230 (h:m:s.ms)
Size:                   10,017,976,320 bytes
Total Bitrate:          45.17 Mbps

VIDEO:

Codec                   Bitrate             Description     
-----                   -------             -----------     
MPEG-4 AVC Video        34422 kbps          1080p / 23.976 fps / 16:9 / High Profile 4.1

AUDIO:

Codec                           Language        Bitrate         Description     
-----                           --------        -------         -----------     
Dolby TrueHD Audio              English         2950 kbps       5.1 / 96 kHz / 2950 kbps / 16-bit (AC3 Embedded: 5.1 / 48 kHz / 448 kbps / DN -9dB)
Dolby TrueHD Audio              Japanese        2996 kbps       5.1 / 96 kHz / 2996 kbps / 16-bit (AC3 Embedded: 5.1 / 48 kHz / 448 kbps / DN -9dB)

SUBTITLES:

Codec                           Language        Bitrate         Description     
-----                           --------        -------         -----------     
Presentation Graphics           English         35.249 kbps                     
Presentation Graphics           English         0.082 kbps                      

FILES:

Name            Time In         Length          Size            Total Bitrate   
----            -------         ------          ----            -------------   
00033.M2TS      0:00:00.000     0:29:34.230     10,017,976,320  45,171          

CHAPTERS:

Number          Time In         Length          Avg Video Rate  Max 1-Sec Rate  Max 1-Sec Time  Max 5-Sec Rate  Max 5-Sec Time  Max 10Sec Rate  Max 10Sec Time  Avg Frame Size  Max Frame Size  Max Frame Time  
------          -------         ------          --------------  --------------  --------------  --------------  --------------  --------------  --------------  --------------  --------------  --------------  
1               0:00:00.000     0:07:01.421     31,462 kbps     41,700 kbps     00:03:00.180    39,209 kbps     00:05:32.999    38,616 kbps     00:01:24.501    164,012 bytes   538,911 bytes   00:02:54.132    
2               0:07:01.421     0:11:02.036     35,023 kbps     41,959 kbps     00:17:31.008    39,523 kbps     00:17:27.004    39,179 kbps     00:17:22.249    182,595 bytes   546,350 bytes   00:17:21.331    
3               0:18:03.457     0:11:30.773     35,650 kbps     42,859 kbps     00:18:55.884    39,584 kbps     00:19:40.804    39,070 kbps     00:19:47.144    185,876 bytes   636,312 bytes   00:18:52.798    

STREAM DIAGNOSTICS:

File            PID             Type            Codec           Language                Seconds                 Bitrate                 Bytes           Packets         
----            ---             ----            -----           --------                --------------          --------------          -------------   -----           
00033.M2TS      4113 (0x1011)   0x1B            AVC                                     1774.106                34,424                  7,633,968,050   41,513,848      
00033.M2TS      4352 (0x1100)   0x83            TrueHD          eng (English)           1774.106                3,398                   753,522,420     5,207,251       
00033.M2TS      4353 (0x1101)   0x83            TrueHD          jpn (Japanese)          1774.106                3,444                   763,778,060     5,351,137       
00033.M2TS      4608 (0x1200)   0x90            PGS             eng (English)           1774.106                35                      7,817,477       45,154          
00033.M2TS      4609 (0x1201)   0x90            PGS             eng (English)           1774.106                0                       18,209          112             

[/code]
<---- END FORUMS PASTE ---->

QUICK SUMMARY:

Disc Title: BoyAndBeast
Disc Size: 42,863,848,041 bytes
Protection: AACS
BD-Java: No
Playlist: 00029.MPLS
Size: 10,017,976,320 bytes
Length: 0:29:34.230
Total Bitrate: 45.17 Mbps
Video: MPEG-4 AVC Video / 34422 kbps / 1080p / 23.976 fps / 16:9 / High Profile 4.1
Audio: English / Dolby TrueHD Audio / 5.1 / 96 kHz / 2950 kbps / 16-bit (AC3 Embedded: 5.1 / 48 kHz / 448 kbps / DN -9dB)
Audio: Japanese / Dolby TrueHD Audio / 5.1 / 96 kHz / 2996 kbps / 16-bit (AC3 Embedded: 5.1 / 48 kHz / 448 kbps / DN -9dB)
Subtitle: English / 35.249 kbps
Subtitle: English / 0.082 kbps


********************
PLAYLIST: 00033.MPLS
********************

<--- BEGIN FORUMS PASTE --->
[code]
                                                                                                                Total   Video                                             
Title                                                           Codec   Length  Movie Size      Disc Size       Bitrate Bitrate Main Audio Track                          Secondary Audio Track
-----                                                           ------  ------- --------------  --------------  ------- ------- ------------------                        ---------------------
00033.MPLS                                                      AVC     0:25:50 8,325,771,264   42,863,848,041  42.97   32.08   Dolby TrueHD 5.1 3480Kbps (96kHz/16-bit)  
[/code]

[code]

DISC INFO:

Disc Title:     BoyAndBeast
Disc Size:      42,863,848,041 bytes
Protection:     AACS
BD-Java:        No
BDInfo:         0.5.8

PLAYLIST REPORT:

Name:                   00033.MPLS
Length:                 0:25:50.006 (h:m:s.ms)
Size:                   8,325,771,264 bytes
Total Bitrate:          42.97 Mbps

VIDEO:

Codec                   Bitrate             Description     
-----                   -------             -----------     
MPEG-4 AVC Video        32078 kbps          1080p / 23.976 fps / 16:9 / High Profile 4.1

AUDIO:

Codec                           Language        Bitrate         Description     
-----                           --------        -------         -----------     
Dolby TrueHD Audio              English         3480 kbps       5.1 / 96 kHz / 3480 kbps / 16-bit
Dolby TrueHD Audio              Japanese        3503 kbps       5.1 / 96 kHz / 3503 kbps / 16-bit

SUBTITLES:

Codec                           Language        Bitrate         Description     
-----                           --------        -------         -----------     
Presentation Graphics           English         28.555 kbps                     
Presentation Graphics           English         4.759 kbps                      

FILES:

Name            Time In         Length          Size            Total Bitrate   
----            -------         ------          ----            -------------   
00038.M2TS      0:00:00.000     0:25:50.006     8,325,771,264   42,972          

CHAPTERS:

Number          Time In         Length          Avg Video Rate  Max 1-Sec Rate  Max 1-Sec Time  Max 5-Sec Rate  Max 5-Sec Time  Max 10Sec Rate  Max 10Sec Time  Avg Frame Size  Max Frame Size  Max Frame Time  
------          -------         ------          --------------  --------------  --------------  --------------  --------------  --------------  --------------  --------------  --------------  --------------  
1               0:00:00.000     0:09:05.920     35,205 kbps     42,589 kbps     00:00:05.714    39,604 kbps     00:03:43.765    39,200 kbps     00:03:37.800    183,529 bytes   593,176 bytes   00:07:42.837    
2               0:09:05.920     0:06:30.932     35,197 kbps     41,217 kbps     00:10:33.049    39,154 kbps     00:10:23.414    38,472 kbps     00:11:36.070    183,503 bytes   492,298 bytes   00:09:26.691    
3               0:15:36.852     0:05:10.476     33,692 kbps     40,970 kbps     00:17:53.155    38,652 kbps     00:17:54.114    37,470 kbps     00:17:49.526    175,653 bytes   578,119 bytes   00:18:35.781    
4               0:20:47.329     0:05:02.677     20,756 kbps     38,666 kbps     00:22:45.572    36,317 kbps     00:25:02.584    34,962 kbps     00:25:01.583    108,228 bytes   638,588 bytes   00:25:08.590    

STREAM DIAGNOSTICS:

File            PID             Type            Codec           Language                Seconds                 Bitrate                 Bytes           Packets         
----            ---             ----            -----           --------                --------------          --------------          -------------   -----           
00038.M2TS      4113 (0x1011)   0x1B            AVC                                     1549.923                32,080                  6,215,217,814   33,799,981      
00038.M2TS      4352 (0x1100)   0x83            TrueHD          eng (English)           1549.923                3,480                   674,223,476     4,709,718       
00038.M2TS      4353 (0x1101)   0x83            TrueHD          jpn (Japanese)          1549.923                3,503                   678,646,608     4,764,666       
00038.M2TS      4608 (0x1200)   0x90            PGS             eng (English)           1549.923                29                      5,532,638       31,812          
00038.M2TS      4609 (0x1201)   0x90            PGS             eng (English)           1549.923                5                       921,992         5,281           

[/code]
<---- END FORUMS PASTE ---->

QUICK SUMMARY:

Disc Title: BoyAndBeast
Disc Size: 42,863,848,041 bytes
Protection: AACS
BD-Java: No
Playlist: 00033.MPLS
Size: 8,325,771,264 bytes
Length: 0:25:50.006
Total Bitrate: 42.97 Mbps
Video: MPEG-4 AVC Video / 32078 kbps / 1080p / 23.976 fps / 16:9 / High Profile 4.1
Audio: English / Dolby TrueHD Audio / 5.1 / 96 kHz / 3480 kbps / 16-bit
Audio: Japanese / Dolby TrueHD Audio / 5.1 / 96 kHz / 3503 kbps / 16-bit
Subtitle: English / 28.555 kbps
Subtitle: English / 4.759 kbps


********************
PLAYLIST: 00007.MPLS
********************

<--- BEGIN FORUMS PASTE --->
[code]
                                                                                                                Total   Video                                             
Title                                                           Codec   Length  Movie Size      Disc Size       Bitrate Bitrate Main Audio Track                          Secondary Audio Track
-----                                                           ------  ------- --------------  --------------  ------- ------- ------------------                        ---------------------
00007.MPLS                                                      AVC     0:02:33 365,469,696     42,863,848,041  19.09   17.99   DD AC3 2.0 192Kbps                        
[/code]

[code]

DISC INFO:

Disc Title:     BoyAndBeast
Disc Size:      42,863,848,041 bytes
Protection:     AACS
BD-Java:        No
BDInfo:         0.5.8

PLAYLIST REPORT:

Name:                   00007.MPLS
Length:                 0:02:33.153 (h:m:s.ms)
Size:                   365,469,696 bytes
Total Bitrate:          19.09 Mbps

VIDEO:

Codec                   Bitrate             Description     
-----                   -------             -----------     
MPEG-4 AVC Video        17995 kbps          1080p / 23.976 fps / 16:9 / High Profile 4.1

AUDIO:

Codec                           Language        Bitrate         Description     
-----                           --------        -------         -----------     
Dolby Digital Audio             English         192 kbps        2.0 / 48 kHz / 192 kbps / DN -9dB

FILES:

Name            Time In         Length          Size            Total Bitrate   
----            -------         ------          ----            -------------   
00010.M2TS      0:00:00.000     0:02:33.153     365,469,696     19,090          

CHAPTERS:

Number          Time In         Length          Avg Video Rate  Max 1-Sec Rate  Max 1-Sec Time  Max 5-Sec Rate  Max 5-Sec Time  Max 10Sec Rate  Max 10Sec Time  Avg Frame Size  Max Frame Size  Max Frame Time  
------          -------         ------          --------------  --------------  --------------  --------------  --------------  --------------  --------------  --------------  --------------  --------------  
1               0:00:00.000     0:02:33.153     17,995 kbps     40,195 kbps     00:02:09.504    30,838 kbps     00:02:06.918    25,746 kbps     00:02:02.664    93,817 bytes    588,632 bytes   00:02:10.505    

STREAM DIAGNOSTICS:

File            PID             Type            Codec           Language                Seconds                 Bitrate                 Bytes           Packets         
----            ---             ----            -----           --------                --------------          --------------          -------------   -----           
00010.M2TS      4113 (0x1011)   0x1B            AVC                                     152.986                 18,015                  344,497,397     1,874,401       
00010.M2TS      4352 (0x1100)   0x81            AC3             eng (English)           152.986                 192                     3,676,416       23,935          

[/code]
<---- END FORUMS PASTE ---->

QUICK SUMMARY:

Disc Title: BoyAndBeast
Disc Size: 42,863,848,041 bytes
Protection: AACS
BD-Java: No
Playlist: 00007.MPLS
Size: 365,469,696 bytes
Length: 0:02:33.153
Total Bitrate: 19.09 Mbps
Video: MPEG-4 AVC Video / 17995 kbps / 1080p / 23.976 fps / 16:9 / High Profile 4.1
Audio: English / Dolby Digital Audio / 2.0 / 48 kHz / 192 kbps / DN -9dB


********************
PLAYLIST: 00006.MPLS
********************

<--- BEGIN FORUMS PASTE --->
[code]
                                                                                                                Total   Video                                             
Title                                                           Codec   Length  Movie Size      Disc Size       Bitrate Bitrate Main Audio Track                          Secondary Audio Track
-----                                                           ------  ------- --------------  --------------  ------- ------- ------------------                        ---------------------
00006.MPLS                                                      AVC     0:02:20 335,665,152     42,863,848,041  19.09   17.99   DD AC3 2.0 192Kbps                        
[/code]

[code]

DISC INFO:

Disc Title:     BoyAndBeast
Disc Size:      42,863,848,041 bytes
Protection:     AACS
BD-Java:        No
BDInfo:         0.5.8

PLAYLIST REPORT:

Name:                   00006.MPLS
Length:                 0:02:20.682 (h:m:s.ms)
Size:                   335,665,152 bytes
Total Bitrate:          19.09 Mbps

VIDEO:

Codec                   Bitrate             Description     
-----                   -------             -----------     
MPEG-4 AVC Video        17993 kbps          1080p / 23.976 fps / 16:9 / High Profile 4.1

AUDIO:

Codec                           Language        Bitrate         Description     
-----                           --------        -------         -----------     
Dolby Digital Audio             English         192 kbps        2.0 / 48 kHz / 192 kbps / DN -3dB

FILES:

Name            Time In         Length          Size            Total Bitrate   
----            -------         ------          ----            -------------   
00009.M2TS      0:00:00.000     0:02:20.682     335,665,152     19,088          

CHAPTERS:

Number          Time In         Length          Avg Video Rate  Max 1-Sec Rate  Max 1-Sec Time  Max 5-Sec Rate  Max 5-Sec Time  Max 10Sec Rate  Max 10Sec Time  Avg Frame Size  Max Frame Size  Max Frame Time  
------          -------         ------          --------------  --------------  --------------  --------------  --------------  --------------  --------------  --------------  --------------  --------------  
1               0:00:00.000     0:02:20.682     17,993 kbps     39,047 kbps     00:01:40.391    30,686 kbps     00:02:01.287    26,579 kbps     00:00:06.965    93,806 bytes    523,603 bytes   00:00:08.049    

STREAM DIAGNOSTICS:

File            PID             Type            Codec           Language                Seconds                 Bitrate                 Bytes           Packets         
----            ---             ----            -----           --------                --------------          --------------          -------------   -----           
00009.M2TS      4113 (0x1011)   0x1B            AVC                                     140.515                 18,014                  316,407,724     1,721,526       
00009.M2TS      4352 (0x1100)   0x81            AC3             eng (English)           140.515                 192                     3,376,896       21,985          

[/code]
<---- END FORUMS PASTE ---->

QUICK SUMMARY:

Disc Title: BoyAndBeast
Disc Size: 42,863,848,041 bytes
Protection: AACS
BD-Java: No
Playlist: 00006.MPLS
Size: 335,665,152 bytes
Length: 0:02:20.682
Total Bitrate: 19.09 Mbps
Video: MPEG-4 AVC Video / 17993 kbps / 1080p / 23.976 fps / 16:9 / High Profile 4.1
Audio: English / Dolby Digital Audio / 2.0 / 48 kHz / 192 kbps / DN -3dB


********************
PLAYLIST: 00005.MPLS
********************

<--- BEGIN FORUMS PASTE --->
[code]
                                                                                                                Total   Video                                             
Title                                                           Codec   Length  Movie Size      Disc Size       Bitrate Bitrate Main Audio Track                          Secondary Audio Track
-----                                                           ------  ------- --------------  --------------  ------- ------- ------------------                        ---------------------
00005.MPLS                                                      AVC     0:02:02 291,434,496     42,863,848,041  19.09   18.00   DD AC3 2.0 192Kbps                        
[/code]

[code]

DISC INFO:

Disc Title:     BoyAndBeast
Disc Size:      42,863,848,041 bytes
Protection:     AACS
BD-Java:        No
BDInfo:         0.5.8

PLAYLIST REPORT:

Name:                   00005.MPLS
Length:                 0:02:02.122 (h:m:s.ms)
Size:                   291,434,496 bytes
Total Bitrate:          19.09 Mbps

VIDEO:

Codec                   Bitrate             Description     
-----                   -------             -----------     
MPEG-4 AVC Video        17996 kbps          1080p / 23.976 fps / 16:9 / High Profile 4.1

AUDIO:

Codec                           Language        Bitrate         Description     
-----                           --------        -------         -----------     
Dolby Digital Audio             English         192 kbps        2.0 / 48 kHz / 192 kbps / DN -11dB

FILES:

Name            Time In         Length          Size            Total Bitrate   
----            -------         ------          ----            -------------   
00008.M2TS      0:00:00.000     0:02:02.122     291,434,496     19,091          

CHAPTERS:

Number          Time In         Length          Avg Video Rate  Max 1-Sec Rate  Max 1-Sec Time  Max 5-Sec Rate  Max 5-Sec Time  Max 10Sec Rate  Max 10Sec Time  Avg Frame Size  Max Frame Size  Max Frame Time  
------          -------         ------          --------------  --------------  --------------  --------------  --------------  --------------  --------------  --------------  --------------  --------------  
1               0:00:00.000     0:02:02.122     17,996 kbps     33,986 kbps     00:00:50.341    25,725 kbps     00:00:48.965    22,271 kbps     00:00:48.048    93,823 bytes    492,778 bytes   00:02:01.121    

STREAM DIAGNOSTICS:

File            PID             Type            Codec           Language                Seconds                 Bitrate                 Bytes           Packets         
----            ---             ----            -----           --------                --------------          --------------          -------------   -----           
00008.M2TS      4113 (0x1011)   0x1B            AVC                                     122.039                 18,008                  274,713,233     1,494,683       
00008.M2TS      4352 (0x1100)   0x81            AC3             eng (English)           122.039                 192                     2,931,456       19,085          

[/code]
<---- END FORUMS PASTE ---->

QUICK SUMMARY:

Disc Title: BoyAndBeast
Disc Size: 42,863,848,041 bytes
Protection: AACS
BD-Java: No
Playlist: 00005.MPLS
Size: 291,434,496 bytes
Length: 0:02:02.122
Total Bitrate: 19.09 Mbps
Video: MPEG-4 AVC Video / 17996 kbps / 1080p / 23.976 fps / 16:9 / High Profile 4.1
Audio: English / Dolby Digital Audio / 2.0 / 48 kHz / 192 kbps / DN -11dB


********************
PLAYLIST: 00018.MPLS
********************

<--- BEGIN FORUMS PASTE --->
[code]
                                                                                                                Total   Video                                             
Title                                                           Codec   Length  Movie Size      Disc Size       Bitrate Bitrate Main Audio Track                          Secondary Audio Track
-----                                                           ------  ------- --------------  --------------  ------- ------- ------------------                        ---------------------
00018.MPLS                                                      AVC     0:01:39 236,531,712     42,863,848,041  19.09   17.99   DD AC3 2.0 192Kbps                        
[/code]

[code]

DISC INFO:

Disc Title:     BoyAndBeast
Disc Size:      42,863,848,041 bytes
Protection:     AACS
BD-Java:        No
BDInfo:         0.5.8

PLAYLIST REPORT:

Name:                   00018.MPLS
Length:                 0:01:39.140 (h:m:s.ms)
Size:                   236,531,712 bytes
Total Bitrate:          19.09 Mbps

VIDEO:

Codec                   Bitrate             Description     
-----                   -------             -----------     
MPEG-4 AVC Video        17992 kbps          1080p / 23.976 fps / 16:9 / High Profile 4.1

AUDIO:

Codec                           Language        Bitrate         Description     
-----                           --------        -------         -----------     
Dolby Digital Audio             English         192 kbps        2.0 / 48 kHz / 192 kbps / DN -15dB

FILES:

Name            Time In         Length          Size            Total Bitrate   
----            -------         ------          ----            -------------   
00021.M2TS      0:00:00.000     0:01:39.140     236,531,712     19,087          

CHAPTERS:

Number          Time In         Length          Avg Video Rate  Max 1-Sec Rate  Max 1-Sec Time  Max 5-Sec Rate  Max 5-Sec Time  Max 10Sec Rate  Max 10Sec Time  Avg Frame Size  Max Frame Size  Max Frame Time  
------          -------         ------          --------------  --------------  --------------  --------------  --------------  --------------  --------------  --------------  --------------  --------------  
1               0:00:00.000     0:01:39.140     17,993 kbps     42,031 kbps     00:01:13.656    32,149 kbps     00:01:12.530    27,891 kbps     00:00:46.963    93,805 bytes    627,279 bytes   00:01:14.616    

STREAM DIAGNOSTICS:

File            PID             Type            Codec           Language                Seconds                 Bitrate                 Bytes           Packets         
----            ---             ----            -----           --------                --------------          --------------          -------------   -----           
00021.M2TS      4113 (0x1011)   0x1B            AVC                                     99.057                  18,008                  222,973,635     1,213,107       
00021.M2TS      4352 (0x1100)   0x81            AC3             eng (English)           99.057                  192                     2,380,032       15,495          

[/code]
<---- END FORUMS PASTE ---->

QUICK SUMMARY:

Disc Title: BoyAndBeast
Disc Size: 42,863,848,041 bytes
Protection: AACS
BD-Java: No
Playlist: 00018.MPLS
Size: 236,531,712 bytes
Length: 0:01:39.140
Total Bitrate: 19.09 Mbps
Video: MPEG-4 AVC Video / 17992 kbps / 1080p / 23.976 fps / 16:9 / High Profile 4.1
Audio: English / Dolby Digital Audio / 2.0 / 48 kHz / 192 kbps / DN -15dB


********************
PLAYLIST: 00017.MPLS
********************

<--- BEGIN FORUMS PASTE --->
[code]
                                                                                                                Total   Video                                             
Title                                                           Codec   Length  Movie Size      Disc Size       Bitrate Bitrate Main Audio Track                          Secondary Audio Track
-----                                                           ------  ------- --------------  --------------  ------- ------- ------------------                        ---------------------
00017.MPLS                                                      AVC     0:01:32 464,142,336     42,863,848,041  40.32   34.63   Dolby TrueHD 5.1 2399Kbps (96kHz/16-bit)  
[/code]

[code]

DISC INFO:

Disc Title:     BoyAndBeast
Disc Size:      42,863,848,041 bytes
Protection:     AACS
BD-Java:        No
BDInfo:         0.5.8

PLAYLIST REPORT:

Name:                   00017.MPLS
Length:                 0:01:32.092 (h:m:s.ms)
Size:                   464,142,336 bytes
Total Bitrate:          40.32 Mbps

VIDEO:

Codec                   Bitrate             Description     
-----                   -------             -----------     
MPEG-4 AVC Video        34632 kbps          1080p / 23.976 fps / 16:9 / High Profile 4.1

AUDIO:

Codec                           Language        Bitrate         Description     
-----                           --------        -------         -----------     
Dolby TrueHD Audio              Japanese        2399 kbps       5.1 / 96 kHz / 2399 kbps / 16-bit (AC3 Embedded: 5.1 / 48 kHz / 448 kbps / DN -11dB)

SUBTITLES:

Codec                           Language        Bitrate         Description     
-----                           --------        -------         -----------     
Presentation Graphics           English         69.237 kbps                     

FILES:

Name            Time In         Length          Size            Total Bitrate   
----            -------         ------          ----            -------------   
00020.M2TS      0:00:00.000     0:01:32.092     464,142,336     40,320          

CHAPTERS:

Number          Time In         Length          Avg Video Rate  Max 1-Sec Rate  Max 1-Sec Time  Max 5-Sec Rate  Max 5-Sec Time  Max 10Sec Rate  Max 10Sec Time  Avg Frame Size  Max Frame Size  Max Frame Time  
------          -------         ------          --------------  --------------  --------------  --------------  --------------  --------------  --------------  --------------  --------------  --------------  
1               0:00:00.000     0:01:32.092     34,632 kbps     42,197 kbps     00:01:02.187    38,751 kbps     00:00:52.927    38,443 kbps     00:00:53.053    180,556 bytes   626,319 bytes   00:01:00.894    

STREAM DIAGNOSTICS:

File            PID             Type            Codec           Language                Seconds                 Bitrate                 Bytes           Packets         
----            ---             ----            -----           --------                --------------          --------------          -------------   -----           
00020.M2TS      4113 (0x1011)   0x1B            AVC                                     92.009                  34,663                  398,666,837     2,167,928       
00020.M2TS      4352 (0x1100)   0x83            TrueHD          jpn (Japanese)          92.009                  2,850                   32,777,992      241,823         
00020.M2TS      4608 (0x1200)   0x90            PGS             eng (English)           92.009                  69                      797,016         4,525           

[/code]
<---- END FORUMS PASTE ---->

QUICK SUMMARY:

Disc Title: BoyAndBeast
Disc Size: 42,863,848,041 bytes
Protection: AACS
BD-Java: No
Playlist: 00017.MPLS
Size: 464,142,336 bytes
Length: 0:01:32.092
Total Bitrate: 40.32 Mbps
Video: MPEG-4 AVC Video / 34632 kbps / 1080p / 23.976 fps / 16:9 / High Profile 4.1
Audio: Japanese / Dolby TrueHD Audio / 5.1 / 96 kHz / 2399 kbps / 16-bit (AC3 Embedded: 5.1 / 48 kHz / 448 kbps / DN -11dB)
Subtitle: English / 69.237 kbps


********************
PLAYLIST: 00016.MPLS
********************

<--- BEGIN FORUMS PASTE --->
[code]
                                                                                                                Total   Video                                             
Title                                                           Codec   Length  Movie Size      Disc Size       Bitrate Bitrate Main Audio Track                          Secondary Audio Track
-----                                                           ------  ------- --------------  --------------  ------- ------- ------------------                        ---------------------
00016.MPLS                                                      AVC     0:01:28 433,287,168     42,863,848,041  39.02   34.75   Dolby TrueHD 2.0 1465Kbps (96kHz/16-bit)  
[/code]

[code]

DISC INFO:

Disc Title:     BoyAndBeast
Disc Size:      42,863,848,041 bytes
Protection:     AACS
BD-Java:        No
BDInfo:         0.5.8

PLAYLIST REPORT:

Name:                   00016.MPLS
Length:                 0:01:28.838 (h:m:s.ms)
Size:                   433,287,168 bytes
Total Bitrate:          39.02 Mbps

VIDEO:

Codec                   Bitrate             Description     
-----                   -------             -----------     
MPEG-4 AVC Video        34746 kbps          1080p / 23.976 fps / 16:9 / High Profile 4.1

AUDIO:

Codec                           Language        Bitrate         Description     
-----                           --------        -------         -----------     
Dolby TrueHD Audio              Japanese        1465 kbps       2.0 / 96 kHz / 1465 kbps / 16-bit (AC3 Embedded: 2.0 / 48 kHz / 192 kbps / DN -11dB / Dolby Surround)

SUBTITLES:

Codec                           Language        Bitrate         Description     
-----                           --------        -------         -----------     
Presentation Graphics           English         51.104 kbps                     

FILES:

Name            Time In         Length          Size            Total Bitrate   
----            -------         ------          ----            -------------   
00019.M2TS      0:00:00.000     0:01:28.838     433,287,168     39,018          

CHAPTERS:

Number          Time In         Length          Avg Video Rate  Max 1-Sec Rate  Max 1-Sec Time  Max 5-Sec Rate  Max 5-Sec Time  Max 10Sec Rate  Max 10Sec Time  Avg Frame Size  Max Frame Size  Max Frame Time  
------          -------         ------          --------------  --------------  --------------  --------------  --------------  --------------  --------------  --------------  --------------  --------------  
1               0:00:00.000     0:01:28.838     34,746 kbps     44,199 kbps     00:00:08.174    39,454 kbps     00:00:08.508    38,401 kbps     00:00:23.440    181,149 bytes   638,160 bytes   00:00:32.866    

STREAM DIAGNOSTICS:

File            PID             Type            Codec           Language                Seconds                 Bitrate                 Bytes           Packets         
----            ---             ----            -----           --------                --------------          --------------          -------------   -----           
00019.M2TS      4113 (0x1011)   0x1B            AVC                                     88.755                  34,779                  385,848,185     2,098,221       
00019.M2TS      4352 (0x1100)   0x83            TrueHD          jpn (Japanese)          88.755                  1,659                   18,402,416      152,197         
00019.M2TS      4608 (0x1200)   0x90            PGS             eng (English)           88.755                  51                      567,505         3,275           

[/code]
<---- END FORUMS PASTE ---->

QUICK SUMMARY:

Disc Title: BoyAndBeast
Disc Size: 42,863,848,041 bytes
Protection: AACS
BD-Java: No
Playlist: 00016.MPLS
Size: 433,287,168 bytes
Length: 0:01:28.838
Total Bitrate: 39.02 Mbps
Video: MPEG-4 AVC Video / 34746 kbps / 1080p / 23.976 fps / 16:9 / High Profile 4.1
Audio: Japanese / Dolby TrueHD Audio / 2.0 / 96 kHz / 1465 kbps / 16-bit (AC3 Embedded: 2.0 / 48 kHz / 192 kbps / DN -11dB / Dolby Surround)
Subtitle: English / 51.104 kbps


********************
PLAYLIST: 00008.MPLS
********************

<--- BEGIN FORUMS PASTE --->
[code]
                                                                                                                Total   Video                                             
Title                                                           Codec   Length  Movie Size      Disc Size       Bitrate Bitrate Main Audio Track                          Secondary Audio Track
-----                                                           ------  ------- --------------  --------------  ------- ------- ------------------                        ---------------------
00008.MPLS                                                      AVC     0:01:15 179,841,024     42,863,848,041  19.09   17.99   DD AC3 2.0 192Kbps                        
[/code]

[code]

DISC INFO:

Disc Title:     BoyAndBeast
Disc Size:      42,863,848,041 bytes
Protection:     AACS
BD-Java:        No
BDInfo:         0.5.8

PLAYLIST REPORT:

Name:                   00008.MPLS
Length:                 0:01:15.366 (h:m:s.ms)
Size:                   179,841,024 bytes
Total Bitrate:          19.09 Mbps

VIDEO:

Codec                   Bitrate             Description     
-----                   -------             -----------     
MPEG-4 AVC Video        17994 kbps          1080p / 23.976 fps / 16:9 / High Profile 4.1

AUDIO:

Codec                           Language        Bitrate         Description     
-----                           --------        -------         -----------     
Dolby Digital Audio             English         192 kbps        2.0 / 48 kHz / 192 kbps / DN -16dB

FILES:

Name            Time In         Length          Size            Total Bitrate   
----            -------         ------          ----            -------------   
00011.M2TS      0:00:00.000     0:01:15.366     179,841,024     19,090          

CHAPTERS:

Number          Time In         Length          Avg Video Rate  Max 1-Sec Rate  Max 1-Sec Time  Max 5-Sec Rate  Max 5-Sec Time  Max 10Sec Rate  Max 10Sec Time  Avg Frame Size  Max Frame Size  Max Frame Time  
------          -------         ------          --------------  --------------  --------------  --------------  --------------  --------------  --------------  --------------  --------------  --------------  
1               0:00:00.000     0:01:15.366     17,994 kbps     33,195 kbps     00:00:50.633    25,799 kbps     00:00:49.966    24,269 kbps     00:00:49.966    93,815 bytes    396,396 bytes   00:00:53.470    

STREAM DIAGNOSTICS:

File            PID             Type            Codec           Language                Seconds                 Bitrate                 Bytes           Packets         
----            ---             ----            -----           --------                --------------          --------------          -------------   -----           
00011.M2TS      4113 (0x1011)   0x1B            AVC                                     75.284                  18,014                  169,523,342     922,352         
00011.M2TS      4352 (0x1100)   0x81            AC3             eng (English)           75.284                  192                     1,809,408       11,780          

[/code]
<---- END FORUMS PASTE ---->

QUICK SUMMARY:

Disc Title: BoyAndBeast
Disc Size: 42,863,848,041 bytes
Protection: AACS
BD-Java: No
Playlist: 00008.MPLS
Size: 179,841,024 bytes
Length: 0:01:15.366
Total Bitrate: 19.09 Mbps
Video: MPEG-4 AVC Video / 17994 kbps / 1080p / 23.976 fps / 16:9 / High Profile 4.1
Audio: English / Dolby Digital Audio / 2.0 / 48 kHz / 192 kbps / DN -16dB


********************
PLAYLIST: 00003.MPLS
********************

<--- BEGIN FORUMS PASTE --->
[code]
                                                                                                                Total   Video                                             
Title                                                           Codec   Length  Movie Size      Disc Size       Bitrate Bitrate Main Audio Track                          Secondary Audio Track
-----                                                           ------  ------- --------------  --------------  ------- ------- ------------------                        ---------------------
00003.MPLS                                                      MPEG-2  0:01:01 50,393,088      42,863,848,041  6.53    5.96    DD AC3 2.0 192Kbps                        
[/code]

[code]

DISC INFO:

Disc Title:     BoyAndBeast
Disc Size:      42,863,848,041 bytes
Protection:     AACS
BD-Java:        No
BDInfo:         0.5.8

PLAYLIST REPORT:

Name:                   00003.MPLS
Length:                 0:01:01.728 (h:m:s.ms)
Size:                   50,393,088 bytes
Total Bitrate:          6.53 Mbps

VIDEO:

Codec                   Bitrate             Description     
-----                   -------             -----------     
MPEG-2 Video            5960 kbps           480i / 29.970 fps / 16:9

AUDIO:

Codec                           Language        Bitrate         Description     
-----                           --------        -------         -----------     
Dolby Digital Audio             English         192 kbps        2.0 / 48 kHz / 192 kbps / DN -17dB

FILES:

Name            Time In         Length          Size            Total Bitrate   
----            -------         ------          ----            -------------   
00002.M2TS      0:00:00.000     0:01:01.728     50,393,088      6,533           

CHAPTERS:

Number          Time In         Length          Avg Video Rate  Max 1-Sec Rate  Max 1-Sec Time  Max 5-Sec Rate  Max 5-Sec Time  Max 10Sec Rate  Max 10Sec Time  Avg Frame Size  Max Frame Size  Max Frame Time  
------          -------         ------          --------------  --------------  --------------  --------------  --------------  --------------  --------------  --------------  --------------  --------------  
1               0:00:00.000     0:01:01.728     5,958 kbps      9,903 kbps      00:00:51.885    8,840 kbps      00:00:49.966    8,232 kbps      00:00:48.131    31,064 bytes    131,290 bytes   00:00:49.999    

STREAM DIAGNOSTICS:

File            PID             Type            Codec           Language                Seconds                 Bitrate                 Bytes           Packets         
----            ---             ----            -----           --------                --------------          --------------          -------------   -----           
00002.M2TS      4113 (0x1011)   0x02            MPEG-2                                  61.562                  5,974                   45,974,801      250,707         
00002.M2TS      4352 (0x1100)   0x81            AC3             eng (English)           61.562                  193                     1,482,240       9,650           

[/code]
<---- END FORUMS PASTE ---->

QUICK SUMMARY:

Disc Title: BoyAndBeast
Disc Size: 42,863,848,041 bytes
Protection: AACS
BD-Java: No
Playlist: 00003.MPLS
Size: 50,393,088 bytes
Length: 0:01:01.728
Total Bitrate: 6.53 Mbps
Video: MPEG-2 Video / 5960 kbps / 480i / 29.970 fps / 16:9
Audio: English / Dolby Digital Audio / 2.0 / 48 kHz / 192 kbps / DN -17dB


********************
PLAYLIST: 00015.MPLS
********************

<--- BEGIN FORUMS PASTE --->
[code]
                                                                                                                Total   Video                                             
Title                                                           Codec   Length  Movie Size      Disc Size       Bitrate Bitrate Main Audio Track                          Secondary Audio Track
-----                                                           ------  ------- --------------  --------------  ------- ------- ------------------                        ---------------------
00015.MPLS                                                      AVC     0:00:32 160,438,272     42,863,848,041  40.07   34.40   Dolby TrueHD 5.1 2307Kbps (96kHz/16-bit)  
[/code]

[code]

DISC INFO:

Disc Title:     BoyAndBeast
Disc Size:      42,863,848,041 bytes
Protection:     AACS
BD-Java:        No
BDInfo:         0.5.8

PLAYLIST REPORT:

Name:                   00015.MPLS
Length:                 0:00:32.032 (h:m:s.ms)
Size:                   160,438,272 bytes
Total Bitrate:          40.07 Mbps

VIDEO:

Codec                   Bitrate             Description     
-----                   -------             -----------     
MPEG-4 AVC Video        34400 kbps          1080p / 23.976 fps / 16:9 / High Profile 4.1

AUDIO:

Codec                           Language        Bitrate         Description     
-----                           --------        -------         -----------     
Dolby TrueHD Audio              English         2307 kbps       5.1 / 96 kHz / 2307 kbps / 16-bit (AC3 Embedded: 5.1 / 48 kHz / 448 kbps / DN -11dB)

SUBTITLES:

Codec                           Language        Bitrate         Description     
-----                           --------        -------         -----------     
Presentation Graphics           English         117.934 kbps                    

FILES:

Name            Time In         Length          Size            Total Bitrate   
----            -------         ------          ----            -------------   
00018.M2TS      0:00:00.000     0:00:32.032     160,438,272     40,069          

CHAPTERS:

Number          Time In         Length          Avg Video Rate  Max 1-Sec Rate  Max 1-Sec Time  Max 5-Sec Rate  Max 5-Sec Time  Max 10Sec Rate  Max 10Sec Time  Avg Frame Size  Max Frame Size  Max Frame Time  
------          -------         ------          --------------  --------------  --------------  --------------  --------------  --------------  --------------  --------------  --------------  --------------  
1               0:00:00.000     0:00:32.032     34,400 kbps     42,059 kbps     00:00:18.226    38,594 kbps     00:00:02.752    37,947 kbps     00:00:11.845    179,348 bytes   638,788 bytes   00:00:18.268    

STREAM DIAGNOSTICS:

File            PID             Type            Codec           Language                Seconds                 Bitrate                 Bytes           Packets         
----            ---             ----            -----           --------                --------------          --------------          -------------   -----           
00018.M2TS      4113 (0x1011)   0x1B            AVC                                     31.949                  34,490                  137,739,050     749,013         
00018.M2TS      4352 (0x1100)   0x83            TrueHD          eng (English)           31.949                  2,762                   11,032,100      82,842          
00018.M2TS      4608 (0x1200)   0x90            PGS             eng (English)           31.949                  118                     472,207         2,649           

[/code]
<---- END FORUMS PASTE ---->

QUICK SUMMARY:

Disc Title: BoyAndBeast
Disc Size: 42,863,848,041 bytes
Protection: AACS
BD-Java: No
Playlist: 00015.MPLS
Size: 160,438,272 bytes
Length: 0:00:32.032
Total Bitrate: 40.07 Mbps
Video: MPEG-4 AVC Video / 34400 kbps / 1080p / 23.976 fps / 16:9 / High Profile 4.1
Audio: English / Dolby TrueHD Audio / 5.1 / 96 kHz / 2307 kbps / 16-bit (AC3 Embedded: 5.1 / 48 kHz / 448 kbps / DN -11dB)
Subtitle: English / 117.934 kbps