General
Unique ID                                : 232630577220913152831743820119471530979 (0xAF0304FBA83F5922802451068B7FA3E3)
Complete name                            : Workaholics.S07.Seven.Deadly.Sins.Seven.Deadly.1080p.WEB-DL.AAC2.0.H.264.mkv
Format                                   : Matroska
Format version                           : Version 4 / Version 2
File size                                : 126 MiB
Duration                                 : 3mn 19s
Overall bit rate                         : 5 309 Kbps
Encoded date                             : UTC 2016-12-31 09:49:09
Writing application                      : mkvmerge v9.7.1 ('Pandemonium') 64bit
Writing library                          : libebml v1.3.4 + libmatroska v1.4.5

Video
ID                                       : 1
Format                                   : AVC
Format/Info                              : Advanced Video Codec
Format profile                           : [email protected]
Format settings, CABAC                   : Yes
Format settings, ReFrames                : 4 frames
Codec ID                                 : V_MPEG4/ISO/AVC
Duration                                 : 3mn 19s
Bit rate                                 : 5 161 Kbps
Width                                    : 1 916 pixels
Height                                   : 1 076 pixels
Display aspect ratio                     : 16:9
Frame rate mode                          : Constant
Frame rate                               : 23.976 (24000/1001) fps
Color space                              : YUV
Chroma subsampling                       : 4:2:0
Bit depth                                : 8 bits
Scan type                                : Progressive
Bits/(Pixel*Frame)                       : 0.104
Stream size                              : 123 MiB (97%)
Title                                    : ripped by CrazyHDSource.com
Language                                 : English
Default                                  : Yes
Forced                                   : No
Color range                              : Limited
Color primaries                          : BT.709
Transfer characteristics                 : BT.709
Matrix coefficients                      : BT.709

Audio
ID                                       : 2
Format                                   : AAC
Format/Info                              : Advanced Audio Codec
Format profile                           : LC
Codec ID                                 : A_AAC
Duration                                 : 3mn 19s
Bit rate                                 : 144 Kbps
Channel(s)                               : 2 channels
Channel positions                        : Front: L R
Sampling rate                            : 48.0 KHz
Frame rate                               : 46.875 fps (1024 spf)
Compression mode                         : Lossy
Stream size                              : 3.48 MiB (3%)
Language                                 : English
Default                                  : Yes
Forced                                   : No

Text
ID                                       : 3
Format                                   : UTF-8
Codec ID                                 : S_TEXT/UTF8
Codec ID/Info                            : UTF-8 Plain Text
Duration                                 : 3mn 10s
Bit rate                                 : 101 bps
Count of elements                        : 98
Stream size                              : 2.35 KiB (0%)
Language                                 : English
Default                                  : No
Forced                                   : No