RAILROAD AUSTRALIA

http://www.discoverychannel.com.au/shows/railroad-australia/

The all new Australian series, Railroad Australia uncovers what it takes to transport ever-growing numbers of passengers and crucial resources across the country. In a wild frontier world of blistering heat and vast distances, an army of workers toil day and night to keep the nationÆs lifeblood flowing, with help from some of the worldÆs most powerful trains. Australian rail operators are global leaders in heavy haul rail freight, moving some of the longest and heaviest freight trains and are vital to AustraliaÆs biggest industries and the survival of many remote communities. 

With unprecedented access, Railroad Australia goes behind the scenes to meet the train drivers, locomotive servicing crews and track maintenance teams on some of the toughest and most spectacular journeys. These are the men and women who keep this incredibly complex rail network running to schedule. From passenger trains to mining, freight and the crews who support them û this is the story of the intricate inner workings of a vital Australian industry.

A short sample is included for evaluation.
=====================================================================

General
Complete name                            : Railroad Australia - S01E07.mp4
Format                                   : MPEG-4
Format profile                           : Base Media / Version 2
Codec ID                                 : mp42
File size                                : 351 MiB
Duration                                 : 43mn 57s
Overall bit rate mode                    : Variable
Overall bit rate                         : 1 117 Kbps
Writing application                      : TMPGEnc Video Mastering Works 5 Version. 5.0.5.32

Video
ID                                       : 2
Format                                   : AVC
Format/Info                              : Advanced Video Codec
Format profile                           : High@L4.1
Format settings, CABAC                   : Yes
Format settings, ReFrames                : 3 frames
Codec ID                                 : avc1
Codec ID/Info                            : Advanced Video Coding
Duration                                 : 43mn 57s
Bit rate mode                            : Variable
Bit rate                                 : 985 Kbps
Maximum bit rate                         : 1 000 Kbps
Width                                    : 720 pixels
Height                                   : 404 pixels
Display aspect ratio                     : 16:9
Original display aspect ratio            : 16:9
Frame rate mode                          : Constant
Frame rate                               : 25.000 fps
Standard                                 : PAL
Color space                              : YUV
Chroma subsampling                       : 4:2:0
Bit depth                                : 8 bits
Scan type                                : Progressive
Bits/(Pixel*Frame)                       : 0.136
Stream size                              : 310 MiB (88%)
Writing library                          : x264 core 112

Color primaries                          : BT.601 PAL
Transfer characteristics                 : BT.470 System B, BT.470 System G
Matrix coefficients                      : BT.601

Audio
ID                                       : 1
Format                                   : AAC
Format/Info                              : Advanced Audio Codec
Format profile                           : LC
Codec ID                                 : 40
Duration                                 : 43mn 57s
Bit rate mode                            : Variable
Bit rate                                 : 128 Kbps
Maximum bit rate                         : 576 Kbps
Channel(s)                               : 2 channels
Channel positions                        : Front: L R
Sampling rate                            : 48.0 KHz
Compression mode                         : Lossy
Stream size                              : 40.3 MiB (11%)