General
Unique ID                                : 183443260856802385521734678667806957520 (0x8A01E30D0F1EA4429C47F14FB5D4DFD0)
Complete name                            : Modern.Family.S08E06.Grab.It.1080p.WEB-DL.DD5.1.H.264-NOGRP.mkv
Format                                   : Matroska
Format version                           : Version 4 / Version 2
File size                                : 866 MiB
Duration                                 : 21mn 38s
Overall bit rate mode                    : Variable
Overall bit rate                         : 5 595 Kbps
Encoded date                             : UTC 2016-12-11 12:52:34
Writing application                      : mkvmerge v7.2.0 ('On Every Street') 64bit built on Sep 13 2014 15:52:10
Writing library                          : libebml v1.3.0 + libmatroska v1.4.1

Video
ID                                       : 1
Format                                   : AVC
Format/Info                              : Advanced Video Codec
Format profile                           : High@L4
Format settings, CABAC                   : Yes
Format settings, ReFrames                : 2 frames
Codec ID                                 : V_MPEG4/ISO/AVC
Duration                                 : 21mn 38s
Bit rate mode                            : Variable
Bit rate                                 : 5 209 Kbps
Maximum bit rate                         : 768 Kbps
Width                                    : 1 916 pixels
Height                                   : 1 076 pixels
Display aspect ratio                     : 16:9
Frame rate mode                          : Constant
Frame rate                               : 23.976 (24000/1001) fps
Original frame rate                      : 25.000 fps
Color space                              : YUV
Chroma subsampling                       : 4:2:0
Bit depth                                : 8 bits
Scan type                                : Progressive
Bits/(Pixel*Frame)                       : 0.105
Stream size                              : 806 MiB (93%)
Language                                 : English
Default                                  : Yes
Forced                                   : No

Audio
ID                                       : 2
Format                                   : AC-3
Format/Info                              : Audio Coding 3
Mode extension                           : CM (complete main)
Format settings, Endianness              : Big
Codec ID                                 : A_AC3
Duration                                 : 21mn 38s
Bit rate mode                            : Constant
Bit rate                                 : 384 Kbps
Channel(s)                               : 6 channels
Channel positions                        : Front: L C R, Side: L R, LFE
Sampling rate                            : 48.0 KHz
Frame rate                               : 31.250 fps (1536 spf)
Compression mode                         : Lossy
Stream size                              : 59.4 MiB (7%)
Language                                 : English
Default                                  : Yes
Forced                                   : No

Text
ID                                       : 3
Format                                   : UTF-8
Codec ID                                 : S_TEXT/UTF8
Codec ID/Info                            : UTF-8 Plain Text
Duration                                 : 21mn 27s
Bit rate                                 : 123 bps
Count of elements                        : 644
Stream size                              : 19.4 KiB (0%)
Language                                 : English
Default                                  : Yes
Forced                                   : No