General
Unique ID                                : 245451829925672130723534053045392902362 (0xB8A84D8BE4A30ADAB959EA9F428808DA)
Complete name                            : South.Park.S20E10.The.End.of.Serialization.as.We.Know.It.UNCENSORED.720p.WEB-DL.AAC2.0.H.264-YFN.mkv
Format                                   : Matroska
Format version                           : Version 2
File size                                : 663 MiB
Duration                                 : 22mn 10s
Overall bit rate                         : 4 179 Kbps
Encoded date                             : UTC 2016-12-09 08:47:18
Writing application                      : mkvmerge v9.6.0 ('Slave To Your Mind') 64bit
Writing library                          : libebml v1.3.4 + libmatroska v1.4.5

Video
ID                                       : 1
Format                                   : AVC
Format/Info                              : Advanced Video Codec
Format profile                           : [email protected]
Format settings, CABAC                   : No
Format settings, ReFrames                : 2 frames
Codec ID                                 : V_MPEG4/ISO/AVC
Duration                                 : 22mn 10s
Bit rate                                 : 4 020 Kbps
Width                                    : 1 280 pixels
Height                                   : 718 pixels
Display aspect ratio                     : 16:9
Frame rate mode                          : Constant
Frame rate                               : 23.976 (24000/1001) fps
Color space                              : YUV
Chroma subsampling                       : 4:2:0
Bit depth                                : 8 bits
Scan type                                : Progressive
Bits/(Pixel*Frame)                       : 0.182
Stream size                              : 638 MiB (96%)
Title                                    : H.264
Default                                  : Yes
Forced                                   : No
Color range                              : Limited
Color primaries                          : BT.709
Transfer characteristics                 : BT.709
Matrix coefficients                      : BT.709

Audio
ID                                       : 2
Format                                   : AAC
Format/Info                              : Advanced Audio Codec
Format profile                           : LC
Codec ID                                 : A_AAC
Duration                                 : 22mn 10s
Bit rate                                 : 156 Kbps
Channel(s)                               : 2 channels
Channel positions                        : Front: L R
Sampling rate                            : 48.0 KHz
Frame rate                               : 46.875 fps (1024 spf)
Compression mode                         : Lossy
Stream size                              : 24.8 MiB (4%)
Title                                    : AAC2.0
Language                                 : English
Default                                  : Yes
Forced                                   : No

Text
ID                                       : 3
Format                                   : UTF-8
Codec ID                                 : S_TEXT/UTF8
Codec ID/Info                            : UTF-8 Plain Text
Duration                                 : 21mn 56s
Bit rate                                 : 105 bps
Count of elements                        : 526
Stream size                              : 16.9 KiB (0%)
Title                                    : CC
Language                                 : English
Default                                  : No
Forced                                   : No