General
Unique ID                                : 170448466324253483328893375257166106937 (0x803B2E3702641B15B285B507E3825139)
Complete name                            : Youre.the.Worst.S03E03.Bad.News.Dudes.Dead.1080p.AMZN.WEBRip.DD5.1.x264-CasStudio.mkv
Format                                   : Matroska
Format version                           : Version 4 / Version 2
File size                                : 2.60 GiB
Duration                                 : 25mn 49s
Overall bit rate mode                    : Variable
Overall bit rate                         : 14.4 Mbps
Movie name                               : Youre.the.Worst.S03E03.Bad.News.Dudes.Dead.1080p.AMZN.WEBRip.DD5.1.x264-CasStudio
Encoded date                             : UTC 2016-09-15 08:28:58
Writing application                      : mkvmerge v9.4.0 ('Knurl') 64bit
Writing library                          : libebml v1.3.4 + libmatroska v1.4.5

Video
ID                                       : 1
Format                                   : AVC
Format/Info                              : Advanced Video Codec
Format profile                           : [email protected]
Format settings, CABAC                   : Yes
Format settings, ReFrames                : 4 frames
Codec ID                                 : V_MPEG4/ISO/AVC
Duration                                 : 25mn 49s
Bit rate mode                            : Variable
Bit rate                                 : 13.8 Mbps
Maximum bit rate                         : 15.0 Mbps
Width                                    : 1 920 pixels
Height                                   : 1 080 pixels
Display aspect ratio                     : 16:9
Frame rate mode                          : Constant
Frame rate                               : 23.976 (24000/1001) fps
Color space                              : YUV
Chroma subsampling                       : 4:2:0
Bit depth                                : 8 bits
Scan type                                : Progressive
Bits/(Pixel*Frame)                       : 0.277
Stream size                              : 2.49 GiB (96%)
Language                                 : English
Default                                  : Yes
Forced                                   : No
Color range                              : Limited
Color primaries                          : BT.709
Transfer characteristics                 : BT.709
Matrix coefficients                      : BT.709

Audio
ID                                       : 2
Format                                   : E-AC-3
Format/Info                              : Audio Coding 3
Format settings, Endianness              : Big
Codec ID                                 : A_EAC3
Duration                                 : 25mn 49s
Bit rate mode                            : Constant
Bit rate                                 : 640 Kbps
Channel(s)                               : 6 channels
Channel positions                        : Front: L C R, Side: L R, LFE
Sampling rate                            : 48.0 KHz
Frame rate                               : 187.500 fps (256 spf)
Compression mode                         : Lossy
Stream size                              : 118 MiB (4%)
Language                                 : English
Default                                  : Yes
Forced                                   : No

Text
ID                                       : 3
Format                                   : UTF-8
Codec ID                                 : S_TEXT/UTF8
Codec ID/Info                            : UTF-8 Plain Text
Duration                                 : 25mn 47s
Bit rate                                 : 89 bps
Count of elements                        : 572
Stream size                              : 16.9 KiB (0%)
Language                                 : English
Default                                  : No
Forced                                   : No