boheme
================================================================================
http://www.allocine.fr/series/ficheserie_gen_cserie=20217.html
*                                                                              *
Creee par 	2016
Avec 	Justin Long, Michael Mosley, Lindsey Kraft plus
Nationalite 	Americaine
Genre 	Comedie
Statut 	En developpement
Format 	22 minutes 
*                                                                              *
Marty Schumacher, coach d'un club de football pour enfant depuis dix ans, finit 
enfin par emmener son equipe jusqu'au championat national. 

================================================================================
*                        Fichiers contenus dans le post                        *
================================================================================

--------------------------------------------------------------------------------
Dream.Team.2016.FRENCH.WEBRip.XviD.boheme \
--------------------------------------------------------------------------------
Dream.Team.2016.FRENCH.WEBRip.XviD.boheme.avi                           01:36:54

Duree................: 01:36:54
Taille des fichiers..: 700.37 Mo


--------------------------------------------------------------------------------
Dream.Team.2016.FRENCH.WEBRip.XviD.boheme \Dream.Team.2016.FRENCH.WEBRip.XviD.bo
heme
--------------------------------------------------------------------------------
Dream.Team.2016.FRENCH.WEBRip.XviD.boheme.nfo

Taille des fichiers..: 0 Octets

================================================================================
*Duree totale du post .........: 01:36:54                                      *
*Taille totale du post ........: 700.37 Mo                                     *
================================================================================

================================================================================
*                Dream.Team.2016.FRENCH.WEBRip.XviD.boheme.avi                 *
================================================================================
*Format                        : AVI                                           *
*Format/Info                   : Audio Video Interleave                        *
*File size                     : 700 MiB                                       *
*Duration                      : 1h 36mn                                       *
*Overall bit rate              : 1 011 Kbps                                    *
*Writing application           : Lavf57.41.100                                 *
*=================================== Video ====================================*
*ID                            : 0                                             *
*Format                        : xvid                                          *
*Codec ID                      : xvid                                          *
*Duration                      : 1h 36mn                                       *
*Bit rate                      : 870 Kbps                                      *
*Width                         : 720 pixels                                    *
*Height                        : 300 pixels                                    *
*Display aspect ratio          : 2.40:1                                        *
*Frame rate                    : 25.000 fps                                    *
*Bits/(Pixel*Frame)            : 0.161                                         *
*Stream size                   : 603 MiB (86%)                                 *
*================================== Audio #1 ==================================*
*ID                            : 1                                             *
*Format                        : MPEG Audio                                    *
*Format version                : Version 1                                     *
*Format profile                : Layer 3                                       *
*Mode                          : Joint stereo                                  *
*Mode extension                : MS Stereo                                     *
*Codec ID                      : 55                                            *
*Codec ID/Hint                 : MP3                                           *
*Duration                      : 1h 36mn                                       *
*Bit rate mode                 : Constant                                      *
*Bit rate                      : 128 Kbps                                      *
*Channel(s)                    : 2 channels                                    *
*Sampling rate                 : 44.1 KHz                                      *
*Compression mode              : Lossy                                         *
*Stream size                   : 88.7 MiB (13%)                                *
*Alignment                     : Aligned on interleaves                        *
*Interleave, duration          : 26 ms (0.65 video frame)                      *
*Interleave, preload duration  : 26 ms                                         *
*Writing library               : LAME3.99.5                                    *

================================================================================