boheme
================================================================================
http://www.allocine.fr/film/fichefilm_gen_cfilm=231742.html
*                                                                              *

Date de sortie 6 avril 2016 (1h 35min)
De Yann Samuell
Avec Audrey Fleurot, Michael Youn, Michele Laroque plus
Genres Comedie dramatique, Fantastique
Nationalites Francais, Belge
*                                                                              *
Au fin fond d'une Bretagne de legendes, le fantome d'Alienor de Canterville est 
condamne a hanter le chateau de sa famille et a en faire fuir tout nouvel 
habitant. Elle remplit cette mission a merveille, aidee de Gwilherm, son fidele
 serviteur. Mais lorsque les Otis, une famille fuyant la vie parisienne, achetent 
le chateau, Alienor se desole car elle n'arrive pas a effrayer cette tribu du 
XXIe siecle... Pire : les enfants la ridiculisent et les parents l'ignorent ! 
Seule Virginia Otis, agee de quinze ans, emue par le sort du fantome de 
Canterville, cherchera a la delivrer de la malediction qui pese sur elleĆ  

================================================================================
*                        Fichiers contenus dans le post                        *
================================================================================

--------------------------------------------------------------------------------
Le.Fantome.De.Canterville.2016.FR.WEBRip.XviD.boheme \
--------------------------------------------------------------------------------
Le Fantome de Canterville.jpg
Le.Fantome.De.Canterville.2016.FR.WEBRip.XviD.boheme.avi                01:31:37

Duree................: 01:31:37
Taille des fichiers..: 700.85 Mo


--------------------------------------------------------------------------------
Le.Fantome.De.Canterville.2016.FR.WEBRip.XviD.boheme \Le.Fantome.De.Canterville.
2016.FR.WEBRip.XviD.boheme
--------------------------------------------------------------------------------
Le.Fantome.De.Canterville.2016.FR.WEBRip.XviD.boheme.nfo

Taille des fichiers..: 0 Octets

================================================================================
*Duree totale du post .........: 01:31:37                                      *
*Taille totale du post ........: 700.85 Mo                                     *
================================================================================

================================================================================
*           Le.Fantome.De.Canterville.2016.FR.WEBRip.XviD.boheme.avi           *
================================================================================
*Format                        : AVI                                           *
*Format/Info                   : Audio Video Interleave                        *
*File size                     : 701 MiB                                       *
*Duration                      : 1h 31mn                                       *
*Overall bit rate              : 1 069 Kbps                                    *
*Writing application           : Lavf57.41.100                                 *
*=================================== Video ====================================*
*ID                            : 0                                             *
*Format                        : xvid                                          *
*Codec ID                      : xvid                                          *
*Duration                      : 1h 31mn                                       *
*Bit rate                      : 929 Kbps                                      *
*Width                         : 720 pixels                                    *
*Height                        : 300 pixels                                    *
*Display aspect ratio          : 2.40:1                                        *
*Frame rate                    : 25.000 fps                                    *
*Bits/(Pixel*Frame)            : 0.172                                         *
*Stream size                   : 609 MiB (87%)                                 *
*================================== Audio #1 ==================================*
*ID                            : 1                                             *
*Format                        : MPEG Audio                                    *
*Format version                : Version 1                                     *
*Format profile                : Layer 3                                       *
*Mode                          : Joint stereo                                  *
*Mode extension                : MS Stereo                                     *
*Codec ID                      : 55                                            *
*Codec ID/Hint                 : MP3                                           *
*Duration                      : 1h 31mn                                       *
*Bit rate mode                 : Constant                                      *
*Bit rate                      : 128 Kbps                                      *
*Channel(s)                    : 2 channels                                    *
*Sampling rate                 : 44.1 KHz                                      *
*Compression mode              : Lossy                                         *
*Stream size                   : 83.9 MiB (12%)                                *
*Alignment                     : Aligned on interleaves                        *
*Interleave, duration          : 26 ms (0.65 video frame)                      *
*Interleave, preload duration  : 26 ms                                         *
*Writing library               : LAME3.99.5                                    *

================================================================================