boheme
================================================================================
http://www.allocine.fr/film/fichefilm_gen_cfilm=230634.html
*                                                                              *

Date de sortie 6 avril 2016 (2h 05min)
De Luca Guadagnino
Avec Tilda Swinton, Ralph Fiennes, Dakota Johnson plus
Genres Policier, Drame
Nationalites Italien, Francais
*                                                                              *
Avertissement : des scenes, des propos ou des images peuvent heurter la 
sensibilite des spectateurs
Lorsque la legende du rock Marianne Lane part sur lÆile mediterraneenne de 
Pantelleria avec Paul, son compagnon, cÆest pour se reposer. Mais quand Harry, 
un producteur de musique iconoclaste avec qui Marianne a eu autrefois une 
liaison, debarque avec sa fille Penelope, la situation se complique. Le passe 
qui ressurgit et beaucoup de sentiments differents vont faire voler la quietude 
des vacances en eclats. Personne nÆechappera a ces vacances tres rockÆnÆrollà 

================================================================================
*                        Fichiers contenus dans le post                        *
================================================================================

--------------------------------------------------------------------------------
A.Bigger.Splash.2015.FR.DVDRiP.XViD.boheme \
--------------------------------------------------------------------------------
A Bigger Splash.jpg
A.Bigger.Splash.2015.FR.DVDRiP.XViD.boheme.avi                          01:59:29

Duree................: 01:59:29
Taille des fichiers..: 1.29 Go


--------------------------------------------------------------------------------
A.Bigger.Splash.2015.FR.DVDRiP.XViD.boheme \A.Bigger.Splash.2015.FR.DVDRiP.XViD.
boheme
--------------------------------------------------------------------------------
A.Bigger.Splash.2015.FR.DVDRiP.XViD.boheme.nfo

Taille des fichiers..: 0 Octets

================================================================================
*Duree totale du post .........: 01:59:29                                      *
*Taille totale du post ........: 1.29 Go                                       *
================================================================================

================================================================================
*                A.Bigger.Splash.2015.FR.DVDRiP.XViD.boheme.avi                *
================================================================================
*Format                        : AVI                                           *
*Format/Info                   : Audio Video Interleave                        *
*Format profile                : OpenDML                                       *
*File size                     : 1.29 GiB                                      *
*Duration                      : 1h 59mn                                       *
*Overall bit rate              : 1 550 Kbps                                    *
*=================================== Video ====================================*
*ID                            : 0                                             *
*Format                        : MPEG-4 Visual                                 *
*Format profile                : [email protected]                                     *
*Format settings, BVOP         : No                                            *
*Format settings, QPel         : No                                            *
*Format settings, GMC          : No warppoints                                 *
*Format settings, Matrix       : Default (H.263)                               *
*Codec ID                      : XVID                                          *
*Codec ID/Hint                 : XviD                                          *
*Duration                      : 1h 59mn                                       *
*Bit rate                      : 1 405 Kbps                                    *
*Width                         : 640 pixels                                    *
*Height                        : 480 pixels                                    *
*Display aspect ratio          : 4:3                                           *
*Frame rate                    : 25.000 fps                                    *
*Color space                   : YUV                                           *
*Chroma subsampling            : 4:2:0                                         *
*Bit depth                     : 8 bits                                        *
*Scan type                     : Progressive                                   *
*Compression mode              : Lossy                                         *
*Bits/(Pixel*Frame)            : 0.183                                         *
*Stream size                   : 1.17 GiB (91%)                                *
*Writing library               : XviD 1.2.1 (UTC 2008-12-04)                   *
*================================== Audio #1 ==================================*
*ID                            : 1                                             *
*Format                        : MPEG Audio                                    *
*Format version                : Version 1                                     *
*Format profile                : Layer 3                                       *
*Mode                          : Joint stereo                                  *
*Codec ID                      : 55                                            *
*Codec ID/Hint                 : MP3                                           *
*Duration                      : 1h 59mn                                       *
*Bit rate mode                 : Constant                                      *
*Bit rate                      : 128 Kbps                                      *
*Channel(s)                    : 2 channels                                    *
*Sampling rate                 : 48.0 KHz                                      *
*Compression mode              : Lossy                                         *
*Stream size                   : 109 MiB (8%)                                  *
*Alignment                     : Aligned on interleaves                        *
*Interleave, duration          : 24 ms (0.60 video frame)                      *
*Writing library               : LAME3.98.2                                    *

================================================================================