boheme
================================================================================
http://www.allocine.fr/film/fichefilm_gen_cfilm=235872.html
*                                                                              *

Date de sortie 3 fevrier 2016 (1h 20min)
De Nael Marandin
Avec Qiu Lan, Yannick Choirat, Louise Chen plus
Genres Drame, Thriller
Nationalite Francais
*                                                                              *
Avertissement : des scenes, des propos ou des images peuvent heurter la 
sensibilite des spectateurs
Lin Aiyu, clandestine chinoise, se prostitue dans les rues de Belleville. Elle 
habite avec sa fille adolescente, a qui elle cache son activite. Leur vie bascule
 lorsqu'un soir, un inconnu, blesse, penetre brutalement chez elles. Tantot 
ravisseur, tantot prisonnier, l'homme sÆimpose comme une menace et une chance a 
saisirà 

================================================================================
*                        Fichiers contenus dans le post                        *
================================================================================

--------------------------------------------------------------------------------
La.Marcheuse.2015.FR.DVDRip.XviD.boheme \
--------------------------------------------------------------------------------
La Marcheuse.jpg
La.Marcheuse.2015.FR.DVDRip.XviD.boheme.avi                             01:16:37

Duree................: 01:16:37
Taille des fichiers..: 694.03 Mo


--------------------------------------------------------------------------------
La.Marcheuse.2015.FR.DVDRip.XviD.boheme \La.Marcheuse.2015.FR.DVDRip.XviD.boheme
--------------------------------------------------------------------------------
La.Marcheuse.2015.FR.DVDRip.XviD.boheme.nfo

Taille des fichiers..: 0 Octets

================================================================================
*Duree totale du post .........: 01:16:37                                      *
*Taille totale du post ........: 694.03 Mo                                     *
================================================================================

================================================================================
*                 La.Marcheuse.2015.FR.DVDRip.XviD.boheme.avi                  *
================================================================================
*Format                        : AVI                                           *
*Format/Info                   : Audio Video Interleave                        *
*File size                     : 694 MiB                                       *
*Duration                      : 1h 16mn                                       *
*Overall bit rate              : 1 266 Kbps                                    *
*Writing application           : MEncoder 1.0rc2-4.2.4                         *
*Writing library               : MPlayer                                       *
*=================================== Video ====================================*
*ID                            : 0                                             *
*Format                        : MPEG-4 Visual                                 *
*Format profile                : Advanced [email protected]                            *
*Format settings, BVOP         : 1                                             *
*Format settings, QPel         : No                                            *
*Format settings, GMC          : No warppoints                                 *
*Format settings, Matrix       : Default (MPEG)                                *
*Muxing mode                   : Packed bitstream                              *
*Codec ID                      : XVID                                          *
*Codec ID/Hint                 : XviD                                          *
*Duration                      : 1h 16mn                                       *
*Bit rate                      : 1 133 Kbps                                    *
*Width                         : 664 pixels                                    *
*Height                        : 360 pixels                                    *
*Display aspect ratio          : 1.85:1                                        *
*Frame rate                    : 25.000 fps                                    *
*Color space                   : YUV                                           *
*Chroma subsampling            : 4:2:0                                         *
*Bit depth                     : 8 bits                                        *
*Scan type                     : Progressive                                   *
*Compression mode              : Lossy                                         *
*Bits/(Pixel*Frame)            : 0.190                                         *
*Stream size                   : 621 MiB (89%)                                 *
*Writing library               : XviD 1.2.1 (UTC 2008-12-04)                   *
*================================== Audio #1 ==================================*
*ID                            : 1                                             *
*Format                        : MPEG Audio                                    *
*Format version                : Version 1                                     *
*Format profile                : Layer 3                                       *
*Mode                          : Joint stereo                                  *
*Mode extension                : MS Stereo                                     *
*Codec ID                      : 55                                            *
*Codec ID/Hint                 : MP3                                           *
*Duration                      : 1h 16mn                                       *
*Bit rate mode                 : Constant                                      *
*Bit rate                      : 128 Kbps                                      *
*Channel(s)                    : 2 channels                                    *
*Sampling rate                 : 48.0 KHz                                      *
*Compression mode              : Lossy                                         *
*Stream size                   : 70.1 MiB (10%)                                *
*Alignment                     : Aligned on interleaves                        *
*Interleave, duration          : 480 ms (12.00 video frames)                   *
*Interleave, preload duration  : 1440 ms                                       *
*Writing library               : LAME3.97                                      *

================================================================================