boheme
================================================================================
* http://www.cinemafantastique.net/Suicide-Squad.html                          *
*                                                                              *
* Titre          : Suicide Squad                                               *
* Titre original : "Suicide Squad"                                             *
* Annee de prod. : 2016                                                        *
* Realisateur    : David Ayer                                                  *
* Scenaristes    : David Ayer, John Ostrander                                  *
* Avec           : Jared Leto, Will Smith, Ike Barinholtz, Joel Kinnaman, Jai  *
* Musique        : Steven Price                                                *
* Genre          : Action, Fantastique                                         *
* Pays d'origine : USA                                                         *
* Duree          : 2h10                                                        *
*                                                                              *
* Descriptif     :                                                             *
* C'est tellement jouissif d'etre un salopard ! Face a une menace aussi        *
* enigmatique qu'invincible, l'agent secret Amanda Waller reunit une armada    *
* de crapules de la pire espece. Armes jusqu'aux dents par le gouvernement,    *
* ces Super-Mechants s'embarquent alors pour une mission-suicide. Jusqu'au     *
* moment ou ils comprennent qu'ils ont ete sacrifies. Vont-ils accepter leur   *
* sort ou se rebeller ?                                                        *

================================================================================
*                        Fichiers contenus dans le post                        *
================================================================================

--------------------------------------------------------------------------------
dauqs.edicius.2016.FR.MD.TS.XviD.boheme \
--------------------------------------------------------------------------------
dauqs.edicius.2016.FR.MD.TS.XviD.boheme.avi                             01:53:32
Suicide Squad.jpg

Duree................: 01:53:32
Taille des fichiers..: 1.85 Go


--------------------------------------------------------------------------------
dauqs.edicius.2016.FR.MD.TS.XviD.boheme \dauqs.edicius.2016.FR.MD.TS.XviD.boheme
--------------------------------------------------------------------------------
dauqs.edicius.2016.FR.MD.TS.XviD.boheme.nfo

Taille des fichiers..: 0 Octets

================================================================================
*Duree totale du post .........: 01:53:32                                      *
*Taille totale du post ........: 1.85 Go                                       *
================================================================================

================================================================================
*                 dauqs.edicius.2016.FR.MD.TS.XviD.boheme.avi                  *
================================================================================
*Format                        : AVI                                           *
*Format/Info                   : Audio Video Interleave                        *
*File size                     : 1.85 GiB                                      *
*Duration                      : 1h 53mn                                       *
*Overall bit rate              : 2 338 Kbps                                    *
*Writing library               : VirtualDub build 35491/release                *
*=================================== Video ====================================*
*ID                            : 0                                             *
*Format                        : MPEG-4 Visual                                 *
*Format profile                : Advanced Simple@L5                            *
*Format settings, BVOP         : 6                                             *
*Format settings, QPel         : No                                            *
*Format settings, GMC          : No warppoints                                 *
*Format settings, Matrix       : Default (H.263)                               *
*Codec ID                      : XVID                                          *
*Codec ID/Hint                 : XviD                                          *
*Duration                      : 1h 53mn                                       *
*Bit rate                      : 2 201 Kbps                                    *
*Width                         : 720 pixels                                    *
*Height                        : 320 pixels                                    *
*Display aspect ratio          : 2.25:1                                        *
*Frame rate                    : 25.000 fps                                    *
*Color space                   : YUV                                           *
*Chroma subsampling            : 4:2:0                                         *
*Bit depth                     : 8 bits                                        *
*Scan type                     : Progressive                                   *
*Compression mode              : Lossy                                         *
*Bits/(Pixel*Frame)            : 0.382                                         *
*Stream size                   : 1.75 GiB (94%)                                *
*Writing library               : XviD 1.2.1 (UTC 2008-12-04)                   *
*================================== Audio #1 ==================================*
*ID                            : 1                                             *
*Format                        : MPEG Audio                                    *
*Format version                : Version 1                                     *
*Format profile                : Layer 3                                       *
*Mode                          : Joint stereo                                  *
*Mode extension                : MS Stereo                                     *
*Codec ID                      : 55                                            *
*Codec ID/Hint                 : MP3                                           *
*Duration                      : 1h 53mn                                       *
*Bit rate mode                 : Constant                                      *
*Bit rate                      : 128 Kbps                                      *
*Channel(s)                    : 2 channels                                    *
*Sampling rate                 : 44.1 KHz                                      *
*Compression mode              : Lossy                                         *
*Delay relative to video       : 2s 500ms                                      *
*Stream size                   : 104 MiB (5%)                                  *
*Alignment                     : Split accross interleaves                     *
*Interleave, duration          : 40 ms (1.00 video frame)                      *
*Interleave, preload duration  : 500 ms                                        *

================================================================================