boheme
================================================================================
*                        Fichiers contenus dans le post                        *
================================================================================

--------------------------------------------------------------------------------
yad.ecnednepedni.2016.HC.FR.HDRip.MD.XviD.boheme \
--------------------------------------------------------------------------------
yad.ecnednepedni.2016.HC.FR.HDRip.MD.XviD.boheme.avi                    01:59:03

Duree................: 01:59:03
Taille des fichiers..: 1.36 Go


--------------------------------------------------------------------------------
yad.ecnednepedni.2016.HC.FR.HDRip.MD.XviD.boheme \yad.ecnednepedni.2016.HC.FR.HD
Rip.MD.XviD.boheme
--------------------------------------------------------------------------------
yad.ecnednepedni.2016.HC.FR.HDRip.MD.XviD.boheme.nfo

Taille des fichiers..: 0 Octets

================================================================================
*Duree totale du post .........: 01:59:03                                      *
*Taille totale du post ........: 1.36 Go                                       *
================================================================================

================================================================================
*             yad.ecnednepedni.2016.HC.FR.HDRip.MD.XviD.boheme.avi             *
================================================================================
*Format                        : AVI                                           *
*Format/Info                   : Audio Video Interleave                        *
*File size                     : 1.36 GiB                                      *
*Duration                      : 1h 59mn                                       *
*Overall bit rate              : 1 632 Kbps                                    *
*=================================== Video ====================================*
*ID                            : 0                                             *
*Format                        : MPEG-4 Visual                                 *
*Format profile                : Advanced Simple@L5                            *
*Format settings, BVOP         : 1                                             *
*Format settings, QPel         : No                                            *
*Format settings, GMC          : No warppoints                                 *
*Format settings, Matrix       : Default (H.263)                               *
*Codec ID                      : XVID                                          *
*Codec ID/Hint                 : XviD                                          *
*Duration                      : 1h 59mn                                       *
*Bit rate                      : 1 506 Kbps                                    *
*Width                         : 720 pixels                                    *
*Height                        : 408 pixels                                    *
*Display aspect ratio          : 16:9                                          *
*Frame rate                    : 30.000 fps                                    *
*Color space                   : YUV                                           *
*Chroma subsampling            : 4:2:0                                         *
*Bit depth                     : 8 bits                                        *
*Scan type                     : Progressive                                   *
*Compression mode              : Lossy                                         *
*Bits/(Pixel*Frame)            : 0.171                                         *
*Stream size                   : 1.25 GiB (92%)                                *
*Writing library               : XviD 67                                       *
*================================== Audio #1 ==================================*
*ID                            : 1                                             *
*Format                        : MPEG Audio                                    *
*Format version                : Version 1                                     *
*Format profile                : Layer 3                                       *
*Mode                          : Joint stereo                                  *
*Mode extension                : MS Stereo                                     *
*Codec ID                      : 55                                            *
*Codec ID/Hint                 : MP3                                           *
*Duration                      : 1h 50mn                                       *
*Bit rate mode                 : Constant                                      *
*Bit rate                      : 128 Kbps                                      *
*Channel(s)                    : 2 channels                                    *
*Sampling rate                 : 44.1 KHz                                      *
*Compression mode              : Lossy                                         *
*Stream size                   : 101 MiB (7%)                                  *
*Alignment                     : Aligned on interleaves                        *
*Interleave, duration          : 144 ms (4.32 video frames)                    *
*Interleave, preload duration  : 208 ms                                        *
*Title                         : M                                             *
*Writing library               : LAME3.99r                                     *

================================================================================