boheme
================================================================================
* http://www.cinemafantastique.net/Jason-Bourne-l-heritage.html                *
*                                                                              *
* Titre          : Jason Bourne : l'heritage                                   *
* Titre original : "The Bourne Legacy"                                         *
* Annee de prod. : 2012                                                        *
* Realisateur    : Tony Gilroy                                                 *
* Scenaristes    : Tony Gilroy, Dan Gilroy                                     *
* Avec           : Jeremy Renner, Albert Finney, Joan Allen, Edward Norton, Ra *
* Musique        : James Newton Howard                                         *
* Genre          : Action, Aventures                                           *
* Pays d'origine : USA                                                         *
*                                                                              *
* Recompenses    :                                                             *
* --                                                                           *
* Descriptif     :                                                             *
* Le destin d'un autre agent, Aaron Cross, pris dans les mailles d'une         *
* organisation aussi menacante que Treadstone...                               *

================================================================================
*                        Fichiers contenus dans le post                        *
================================================================================

--------------------------------------------------------------------------------
Bourne.J.2016.FR.MD.TS.XViD.boheme \
--------------------------------------------------------------------------------
Bourne.J.2016.FR.MD.TS.XViD.boheme.avi                                  01:53:26

Duree................: 01:53:26
Taille des fichiers..: 1.53 Go


--------------------------------------------------------------------------------
Bourne.J.2016.FR.MD.TS.XViD.boheme \Bourne.J.2016.FR.MD.TS.XViD.boheme
--------------------------------------------------------------------------------
Bourne.J.2016.FR.MD.TS.XViD.boheme.nfo

Taille des fichiers..: 0 Octets

================================================================================
*Duree totale du post .........: 01:53:26                                      *
*Taille totale du post ........: 1.53 Go                                       *
================================================================================

================================================================================
*                    Bourne.J.2016.FR.MD.TS.XViD.boheme.avi                    *
================================================================================
*Format                        : AVI                                           *
*Format/Info                   : Audio Video Interleave                        *
*File size                     : 1.53 GiB                                      *
*Duration                      : 1h 53mn                                       *
*Overall bit rate              : 1 936 Kbps                                    *
*Writing library               : VirtualDub build 35491/release                *
*=================================== Video ====================================*
*ID                            : 0                                             *
*Format                        : MPEG-4 Visual                                 *
*Format profile                : Advanced Simple@L5                            *
*Format settings, BVOP         : 2                                             *
*Format settings, QPel         : No                                            *
*Format settings, GMC          : No warppoints                                 *
*Format settings, Matrix       : Default (H.263)                               *
*Codec ID                      : XVID                                          *
*Codec ID/Hint                 : XviD                                          *
*Duration                      : 1h 53mn                                       *
*Bit rate                      : 1 798 Kbps                                    *
*Width                         : 640 pixels                                    *
*Height                        : 272 pixels                                    *
*Display aspect ratio          : 2.35:1                                        *
*Frame rate                    : 25.000 fps                                    *
*Color space                   : YUV                                           *
*Chroma subsampling            : 4:2:0                                         *
*Bit depth                     : 8 bits                                        *
*Scan type                     : Progressive                                   *
*Compression mode              : Lossy                                         *
*Bits/(Pixel*Frame)            : 0.413                                         *
*Stream size                   : 1.42 GiB (93%)                                *
*Writing library               : XviD 73                                       *
*================================== Audio #1 ==================================*
*ID                            : 1                                             *
*Format                        : MPEG Audio                                    *
*Format version                : Version 1                                     *
*Format profile                : Layer 3                                       *
*Mode                          : Joint stereo                                  *
*Codec ID                      : 55                                            *
*Codec ID/Hint                 : MP3                                           *
*Duration                      : 1h 53mn                                       *
*Bit rate mode                 : Constant                                      *
*Bit rate                      : 128 Kbps                                      *
*Channel(s)                    : 2 channels                                    *
*Sampling rate                 : 44.1 KHz                                      *
*Compression mode              : Lossy                                         *
*Delay relative to video       : 3s 18ms                                       *
*Stream size                   : 104 MiB (7%)                                  *
*Alignment                     : Split accross interleaves                     *
*Interleave, duration          : 40 ms (1.00 video frame)                      *
*Interleave, preload duration  : 500 ms                                        *

================================================================================