boheme
================================================================================
* http://www.cinemafantastique.net/The-Wave.html                               *
*                                                                              *
* Titre          : The Wave                                                    *
* Titre original : "Bolgen"                                                    *
* Annee de prod. : 2015                                                        *
* Realisateur    : Roar Uthaug                                                 *
* Scenaristes    : John KAÑre Raake, Harald Rosenlow-Eeg                       *
* Avec           : Kristoffer Joner, Fridtjov Saheim, Ane Dahl Torp, Thomas Bo *
* Musique        : Magnus Beite                                                *
* Genre          : Action, Thriller, Catastrophe                               *
* Pays d'origine : Norvege, Suede                                              *
* Duree          : 1h45                                                        *
*                                                                              *
* Descriptif     :                                                             *
* Le film raconte l'histoire d'une famille qui vit dans un fjord en Norvege.   *
* Le pere de famille travaille pour l'institution qui s'occupe de surveiller   *
* la montagne qui risquerait de s'effondrer et de creer un tsunami qui         *
* raserait tout le village.                                                    *

================================================================================
*                        Fichiers contenus dans le post                        *
================================================================================

--------------------------------------------------------------------------------
The.Wave.2016.FR.DVDRIP.Xvid.boheme \
--------------------------------------------------------------------------------
The Wave.jpg
The.Wave.2016.FR.DVDRIP.Xvid.boheme.avi                                 01:45:19

Duree................: 01:45:19
Taille des fichiers..: 1.06 Go


--------------------------------------------------------------------------------
The.Wave.2016.FR.DVDRIP.Xvid.boheme \The.Wave.2016.FR.DVDRIP.Xvid.boheme
--------------------------------------------------------------------------------
The.Wave.2016.FR.DVDRIP.Xvid.boheme.nfo

Taille des fichiers..: 0 Octets

================================================================================
*Duree totale du post .........: 01:45:19                                      *
*Taille totale du post ........: 1.06 Go                                       *
================================================================================

================================================================================
*                   The.Wave.2016.FR.DVDRIP.Xvid.boheme.avi                    *
================================================================================
*Format                        : AVI                                           *
*Format/Info                   : Audio Video Interleave                        *
*Format profile                : OpenDML                                       *
*File size                     : 1.06 GiB                                      *
*Duration                      : 1h 45mn                                       *
*Overall bit rate              : 1 439 Kbps                                    *
*Movie name                    : THE_WAVE.Title1                               *
*Writing application           : Lavf57.41.100                                 *
*=================================== Video ====================================*
*ID                            : 0                                             *
*Format                        : xvid                                          *
*Codec ID                      : xvid                                          *
*Duration                      : 1h 45mn                                       *
*Bit rate                      : 1 295 Kbps                                    *
*Width                         : 720 pixels                                    *
*Height                        : 304 pixels                                    *
*Display aspect ratio          : 2.35:1                                        *
*Frame rate                    : 25.000 fps                                    *
*Bits/(Pixel*Frame)            : 0.237                                         *
*Stream size                   : 976 MiB (90%)                                 *
*================================== Audio #1 ==================================*
*ID                            : 1                                             *
*Format                        : MPEG Audio                                    *
*Format version                : Version 1                                     *
*Format profile                : Layer 3                                       *
*Mode                          : Joint stereo                                  *
*Mode extension                : MS Stereo                                     *
*Codec ID                      : 55                                            *
*Codec ID/Hint                 : MP3                                           *
*Duration                      : 1h 45mn                                       *
*Bit rate mode                 : Constant                                      *
*Bit rate                      : 128 Kbps                                      *
*Channel(s)                    : 2 channels                                    *
*Sampling rate                 : 44.1 KHz                                      *
*Compression mode              : Lossy                                         *
*Stream size                   : 96.4 MiB (9%)                                 *
*Alignment                     : Aligned on interleaves                        *
*Interleave, duration          : 26 ms (0.65 video frame)                      *
*Interleave, preload duration  : 26 ms                                         *

================================================================================