boheme
================================================================================
http://www.allocine.fr/film/fichefilm_gen_cfilm=230166.html
*                                                                              *

Date de sortie 6 avril 2016 (2h 06min)
De James Vanderbilt
Avec Cate Blanchett, Robert Redford, Dennis Quaid plus
Genres Drame, Biopic
Nationalite Americain
*                                                                              *
L'histoire de Mary Mapes, journaliste primee de CBS et productrice de Dan 
Rather, l'un des plus celebres journalistes et presentateurs de l'histoire de 
la television americaine, qui a devoile -entre autres scoops- le scandale de la 
prison d'Abou Ghraib. 

================================================================================
*                        Fichiers contenus dans le post                        *
================================================================================

--------------------------------------------------------------------------------
Truth.2015.FR.BDRip.XViD.AC3.boheme \
--------------------------------------------------------------------------------
Truth  Le Prix de la Verite.jpg
Truth.2015.FR.BDRip.XViD.AC3.boheme.avi                                 02:05:14

Duree................: 02:05:14
Taille des fichiers..: 1.32 Go


--------------------------------------------------------------------------------
Truth.2015.FR.BDRip.XViD.AC3.boheme \Truth.2015.FR.BDRip.XViD.AC3.boheme
--------------------------------------------------------------------------------
Truth.2015.FR.BDRip.XViD.AC3.boheme.nfo

Taille des fichiers..: 0 Octets

================================================================================
*Duree totale du post .........: 02:05:14                                      *
*Taille totale du post ........: 1.32 Go                                       *
================================================================================

================================================================================
*                   Truth.2015.FR.BDRip.XViD.AC3.boheme.avi                    *
================================================================================
*Format                        : AVI                                           *
*Format/Info                   : Audio Video Interleave                        *
*Format profile                : OpenDML                                       *
*File size                     : 1.32 GiB                                      *
*Duration                      : 2h 5mn                                        *
*Overall bit rate              : 1 512 Kbps                                    *
*Writing application           : Lavf54.63.104                                 *
*=================================== Video ====================================*
*ID                            : 0                                             *
*Format                        : MPEG-4 Visual                                 *
*Format profile                : [email protected]                                     *
*Format settings, BVOP         : No                                            *
*Format settings, QPel         : No                                            *
*Format settings, GMC          : No warppoints                                 *
*Format settings, Matrix       : Default (H.263)                               *
*Codec ID                      : XVID                                          *
*Codec ID/Hint                 : XviD                                          *
*Duration                      : 2h 5mn                                        *
*Bit rate                      : 1 052 Kbps                                    *
*Width                         : 720 pixels                                    *
*Height                        : 300 pixels                                    *
*Display aspect ratio          : 2.40:1                                        *
*Frame rate                    : 24.000 fps                                    *
*Color space                   : YUV                                           *
*Chroma subsampling            : 4:2:0                                         *
*Bit depth                     : 8 bits                                        *
*Scan type                     : Progressive                                   *
*Compression mode              : Lossy                                         *
*Bits/(Pixel*Frame)            : 0.203                                         *
*Stream size                   : 942 MiB (70%)                                 *
*Writing library               : XviD 64                                       *
*================================== Audio #1 ==================================*
*ID                            : 1                                             *
*Format                        : AC-3                                          *
*Format/Info                   : Audio Coding 3                                *
*Codec ID                      : 00001000-0000-0020-8000-00AA00389B71          *
*Duration                      : 2h 5mn                                        *
*Bit rate                      : 448 Kbps                                      *
*Channel(s)                    : 6 channels                                    *
*Channel positions             : Front: L C R, Back: L R, LFE                  *
*Sampling rate                 : 44.1 KHz                                      *
*Bit depth                     : 16 bits                                       *
*Compression mode              : Lossy                                         *
*Stream size                   : 401 MiB (30%)                                 *
*Interleave, duration          : 35 ms (0.84 video frame)                      *
*Title                         : French                                        *

================================================================================