boheme
================================================================================
http://www.allocine.fr/film/fichefilm_gen_cfilm=231856.html
*                                                                              *

Date de sortie 20 avril 2016 (1h 30min)
De Vincent Kesteloot
Avec Matthias Schweighofer, Kaya Yanar, Dieter Hallervorden plus
Genres Animation, Famille, Aventure
Nationalites Belge, Francais
*                                                                              *
A partir de 6 ans
Mardi, un jeune perroquet, vit sur une ile paradisiaque avec dÆautres animaux. 
Il reve de quitter son ile pour decouvrir le reste du monde. Apres une violente 
tempete, Mardi et ses amis font la decouverte dÆune etrange creature sur la 
plage : Robinson Crusoe. Les animaux de lÆile vont devoir apprivoiser ce nouvel 
arrivant ! CÆest pour Mardi lÆoccasion de vivre une extraordinaire aventure et 
peut-etre de quitter son ile ! 

================================================================================
*                        Fichiers contenus dans le post                        *
================================================================================

--------------------------------------------------------------------------------
Robinson.Crusoe.2016.FR.DVDRip.XviD.boheme \
--------------------------------------------------------------------------------
Robinson Crusoe.jpg
Robinson.Crusoe.2016.FR.DVDRip.XviD.boheme.avi                          01:27:15

Duree................: 01:27:15
Taille des fichiers..: 699.81 Mo


--------------------------------------------------------------------------------
Robinson.Crusoe.2016.FR.DVDRip.XviD.boheme \Robinson.Crusoe.2016.FR.DVDRip.XviD.
boheme
--------------------------------------------------------------------------------
Robinson.Crusoe.2016.FR.DVDRip.XviD.boheme.nfo

Taille des fichiers..: 0 Octets

================================================================================
*Duree totale du post .........: 01:27:15                                      *
*Taille totale du post ........: 699.81 Mo                                     *
================================================================================

================================================================================
*                Robinson.Crusoe.2016.FR.DVDRip.XviD.boheme.avi                *
================================================================================
*Format                        : AVI                                           *
*Format/Info                   : Audio Video Interleave                        *
*File size                     : 700 MiB                                       *
*Duration                      : 1h 27mn                                       *
*Overall bit rate              : 1 121 Kbps                                    *
*Writing application           : MEncoder 1.0rc2-4.2.4                         *
*Writing library               : MPlayer                                       *
*=================================== Video ====================================*
*ID                            : 0                                             *
*Format                        : MPEG-4 Visual                                 *
*Format profile                : [email protected]                                     *
*Format settings, BVOP         : No                                            *
*Format settings, QPel         : No                                            *
*Format settings, GMC          : No warppoints                                 *
*Format settings, Matrix       : Default (H.263)                               *
*Codec ID                      : XVID                                          *
*Codec ID/Hint                 : XviD                                          *
*Duration                      : 1h 27mn                                       *
*Bit rate                      : 988 Kbps                                      *
*Width                         : 656 pixels                                    *
*Height                        : 368 pixels                                    *
*Display aspect ratio          : 16:9                                          *
*Frame rate                    : 25.000 fps                                    *
*Color space                   : YUV                                           *
*Chroma subsampling            : 4:2:0                                         *
*Bit depth                     : 8 bits                                        *
*Scan type                     : Progressive                                   *
*Compression mode              : Lossy                                         *
*Bits/(Pixel*Frame)            : 0.164                                         *
*Stream size                   : 617 MiB (88%)                                 *
*Writing library               : XviD 1.1.2 (UTC 2006-11-01)                   *
*================================== Audio #1 ==================================*
*ID                            : 1                                             *
*Format                        : MPEG Audio                                    *
*Format version                : Version 1                                     *
*Format profile                : Layer 3                                       *
*Mode                          : Joint stereo                                  *
*Mode extension                : MS Stereo                                     *
*Codec ID                      : 55                                            *
*Codec ID/Hint                 : MP3                                           *
*Duration                      : 1h 27mn                                       *
*Bit rate mode                 : Constant                                      *
*Bit rate                      : 128 Kbps                                      *
*Channel(s)                    : 2 channels                                    *
*Sampling rate                 : 48.0 KHz                                      *
*Compression mode              : Lossy                                         *
*Delay relative to video       : 8ms                                           *
*Stream size                   : 79.9 MiB (11%)                                *
*Alignment                     : Split accross interleaves                     *
*Interleave, duration          : 500 ms (12.50 video frames)                   *
*Interleave, preload duration  : 1000 ms                                       *

================================================================================