boheme
================================================================================
http://www.allocine.fr/film/fichefilm_gen_cfilm=221612.html
*                                                                              *

Date de sortie 23 mars 2016 (1h 35min)
De Julien Rappeneau
Avec Noemie Lvovsky, Kyan Khojandi, Alice Isaaz plus
Genre Comedie
Nationalite Francais
*                                                                              *
Vincent Machot connait sa vie par coeur. Il la partage entre son salon de coiffure
, son cousin, son chat, et sa mere bien trop envahissante. Mais la vie reserve 
parfois des surprises, meme aux plus prudents...
Il croise par hasard Rosalie Blum, une femme mysterieuse et solitaire, qu'il est 
convaincu d'avoir deja rencontree. Mais ou ?
Intrigue, il se decide a la suivre partout, dans l'espoir d'en savoir plus. Il 
ne se doute pas que cette filature va lÆentrainer dans une aventure pleine dÆ
imprevus ou il decouvrira des personnages aussi fantasques quÆattachants. Une 
chose est sure : la vie de Vincent Machot va changerà 

================================================================================
*                        Fichiers contenus dans le post                        *
================================================================================

--------------------------------------------------------------------------------
Rosalie.Blum.2016.FR.DVDRip.XViD.boheme \
--------------------------------------------------------------------------------
Rosalie Blum.jpg
Rosalie.Blum.2016.FR.DVDRip.XViD.boheme.avi                             01:31:35

Duree................: 01:31:35
Taille des fichiers..: 703.28 Mo


--------------------------------------------------------------------------------
Rosalie.Blum.2016.FR.DVDRip.XViD.boheme \Rosalie.Blum.2016.FR.DVDRip.XViD.boheme
--------------------------------------------------------------------------------
Rosalie.Blum.2016.FR.DVDRip.XViD.boheme.nfo

Taille des fichiers..: 0 Octets

================================================================================
*Duree totale du post .........: 01:31:35                                      *
*Taille totale du post ........: 703.28 Mo                                     *
================================================================================

================================================================================
*                 Rosalie.Blum.2016.FR.DVDRip.XViD.boheme.avi                  *
================================================================================
*Format                        : AVI                                           *
*Format/Info                   : Audio Video Interleave                        *
*File size                     : 703 MiB                                       *
*Duration                      : 1h 31mn                                       *
*Overall bit rate              : 1 074 Kbps                                    *
*Writing application           : VirtualDubMod 1.5.10.3 | www.virtualdub-fr.org*
*Writing library               : VirtualDubMod build 2550/release              *
*=================================== Video ====================================*
*ID                            : 0                                             *
*Format                        : MPEG-4 Visual                                 *
*Format profile                : Advanced [email protected]                            *
*Format settings, BVOP         : 1                                             *
*Format settings, QPel         : No                                            *
*Format settings, GMC          : No warppoints                                 *
*Format settings, Matrix       : Default (H.263)                               *
*Codec ID                      : XVID                                          *
*Codec ID/Hint                 : XviD                                          *
*Duration                      : 1h 31mn                                       *
*Bit rate                      : 936 Kbps                                      *
*Width                         : 720 pixels                                    *
*Height                        : 304 pixels                                    *
*Display aspect ratio          : 2.35:1                                        *
*Frame rate                    : 25.000 fps                                    *
*Color space                   : YUV                                           *
*Chroma subsampling            : 4:2:0                                         *
*Bit depth                     : 8 bits                                        *
*Scan type                     : Progressive                                   *
*Compression mode              : Lossy                                         *
*Bits/(Pixel*Frame)            : 0.171                                         *
*Stream size                   : 613 MiB (87%)                                 *
*Writing library               : XviD 1.2.1 (UTC 2008-12-04)                   *
*================================== Audio #1 ==================================*
*ID                            : 1                                             *
*Format                        : MPEG Audio                                    *
*Format version                : Version 1                                     *
*Format profile                : Layer 3                                       *
*Codec ID                      : 55                                            *
*Codec ID/Hint                 : MP3                                           *
*Duration                      : 1h 31mn                                       *
*Bit rate mode                 : Constant                                      *
*Bit rate                      : 128 Kbps                                      *
*Channel(s)                    : 2 channels                                    *
*Sampling rate                 : 48.0 KHz                                      *
*Compression mode              : Lossy                                         *
*Stream size                   : 83.8 MiB (12%)                                *
*Alignment                     : Aligned on interleaves                        *
*Interleave, duration          : 40 ms (1.00 video frame)                      *
*Interleave, preload duration  : 504 ms                                        *
*Writing library               : LAME3.99r                                     *

================================================================================