General
Unique ID                                : 188972802328284353019290493850565472235 (0x8E2AD67E826C772CB75DAF07F76FEFEB)
Complete name                            : Broad.City.S03E10.Jews.on.a.Plane.720p.WEB-DL.AAC2.0.H.264-BTN.mkv
Format                                   : Matroska
Format version                           : Version 4 / Version 2
File size                                : 637 MiB
Duration                                 : 21mn 25s
Overall bit rate                         : 4 158 Kbps
Encoded date                             : UTC 2016-04-21 07:31:33
Writing application                      : mkvmerge v9.0.1 ('Obstacles') 32bit
Writing library                          : libebml v1.3.3 + libmatroska v1.4.4

Video
ID                                       : 2
Format                                   : AVC
Format/Info                              : Advanced Video Codec
Format profile                           : [email protected]
Format settings, CABAC                   : No
Format settings, ReFrames                : 2 frames
Codec ID                                 : V_MPEG4/ISO/AVC
Duration                                 : 21mn 25s
Bit rate                                 : 4 008 Kbps
Width                                    : 1 280 pixels
Height                                   : 718 pixels
Display aspect ratio                     : 16:9
Frame rate mode                          : Constant
Frame rate                               : 23.976 (24000/1001) fps
Color space                              : YUV
Chroma subsampling                       : 4:2:0
Bit depth                                : 8 bits
Scan type                                : Progressive
Bits/(Pixel*Frame)                       : 0.182
Stream size                              : 614 MiB (96%)
Language                                 : English
Default                                  : Yes
Forced                                   : No
Color range                              : Limited
Color primaries                          : BT.709
Transfer characteristics                 : BT.709
Matrix coefficients                      : BT.709

Audio
ID                                       : 1
Format                                   : AAC
Format/Info                              : Advanced Audio Codec
Format profile                           : LC
Codec ID                                 : A_AAC
Duration                                 : 21mn 25s
Bit rate                                 : 148 Kbps
Channel(s)                               : 2 channels
Channel positions                        : Front: L R
Sampling rate                            : 48.0 KHz
Frame rate                               : 46.875 fps (1024 spf)
Compression mode                         : Lossy
Stream size                              : 22.7 MiB (4%)
Language                                 : English
Default                                  : Yes
Forced                                   : No

Text
ID                                       : 3
Format                                   : UTF-8
Codec ID                                 : S_TEXT/UTF8
Codec ID/Info                            : UTF-8 Plain Text
Duration                                 : 21mn 19s
Bit rate                                 : 102 bps
Count of elements                        : 580
Stream size                              : 16.0 KiB (0%)
Language                                 : English
Default                                  : Yes
Forced                                   : No