General
Unique ID                                : 172448489427549041265301183401456293318 (0x81BC5EF794BC552F90E3FD43A32FD5C6)
Complete name                            : Broad.City.S03E05.2016.720p.WEB-DL.AAC2.0.H.264-BTN.mkv
Format                                   : Matroska
Format version                           : Version 4 / Version 2
File size                                : 632 MiB
Duration                                 : 21mn 23s
Overall bit rate                         : 4 129 Kbps
Encoded date                             : UTC 2016-03-21 00:24:44
Writing application                      : mkvmerge v8.3.0 ('Over the Horizon') 64bit
Writing library                          : libebml v1.3.1 + libmatroska v1.4.2

Video
ID                                       : 2
Format                                   : AVC
Format/Info                              : Advanced Video Codec
Format profile                           : [email protected]
Format settings, CABAC                   : No
Format settings, ReFrames                : 2 frames
Codec ID                                 : V_MPEG4/ISO/AVC
Duration                                 : 21mn 23s
Bit rate                                 : 3 975 Kbps
Width                                    : 1 280 pixels
Height                                   : 718 pixels
Display aspect ratio                     : 16:9
Frame rate mode                          : Constant
Frame rate                               : 23.976 (24000/1001) fps
Color space                              : YUV
Chroma subsampling                       : 4:2:0
Bit depth                                : 8 bits
Scan type                                : Progressive
Bits/(Pixel*Frame)                       : 0.180
Stream size                              : 608 MiB (96%)
Language                                 : English
Default                                  : Yes
Forced                                   : No
Color range                              : Limited
Color primaries                          : BT.709
Transfer characteristics                 : BT.709
Matrix coefficients                      : BT.709

Audio
ID                                       : 1
Format                                   : AAC
Format/Info                              : Advanced Audio Codec
Format profile                           : LC
Codec ID                                 : A_AAC
Duration                                 : 21mn 23s
Bit rate                                 : 152 Kbps
Channel(s)                               : 2 channels
Channel positions                        : Front: L R
Sampling rate                            : 48.0 KHz
Frame rate                               : 46.875 fps (1024 spf)
Compression mode                         : Lossy
Stream size                              : 23.2 MiB (4%)
Language                                 : English
Default                                  : Yes
Forced                                   : No

Text
ID                                       : 3
Format                                   : UTF-8
Codec ID                                 : S_TEXT/UTF8
Codec ID/Info                            : UTF-8 Plain Text
Duration                                 : 21mn 18s
Bit rate                                 : 97 bps
Count of elements                        : 583
Stream size                              : 15.3 KiB (0%)
Language                                 : English
Default                                  : Yes
Forced                                   : No