General
Unique ID                                : 192771425501666248443349911050742990359 (0x91066D138D44A0AC9E4F313AA1910617)
Complete name                            : It's Always Sunny in Philadelphia S11E09 The Gang Goes to Hell 1080p WEB-DL AAC2.0 H.264-Oosh.mkv
Format                                   : Matroska
Format version                           : Version 4 / Version 2
File size                                : 794 MiB
Duration                                 : 21mn 36s
Overall bit rate                         : 5 138 Kbps
Encoded date                             : UTC 2016-03-05 21:50:45
Writing application                      : mkvmerge v8.9.0 ('Father Daughter') 64bit
Writing library                          : libebml v1.3.3 + libmatroska v1.4.4

Video
ID                                       : 2
Format                                   : AVC
Format/Info                              : Advanced Video Codec
Format profile                           : [email protected]
Format settings, CABAC                   : Yes
Format settings, ReFrames                : 4 frames
Codec ID                                 : V_MPEG4/ISO/AVC
Duration                                 : 21mn 36s
Bit rate                                 : 4 979 Kbps
Width                                    : 1 916 pixels
Height                                   : 1 076 pixels
Display aspect ratio                     : 16:9
Frame rate mode                          : Constant
Frame rate                               : 23.976 (23976/1000) fps
Color space                              : YUV
Chroma subsampling                       : 4:2:0
Bit depth                                : 8 bits
Scan type                                : Progressive
Bits/(Pixel*Frame)                       : 0.101
Stream size                              : 769 MiB (97%)
Language                                 : English
Default                                  : Yes
Forced                                   : No
Color range                              : Limited
Color primaries                          : BT.709
Transfer characteristics                 : BT.709
Matrix coefficients                      : BT.709

Audio
ID                                       : 1
Format                                   : AAC
Format/Info                              : Advanced Audio Codec
Format profile                           : LC
Codec ID                                 : A_AAC
Duration                                 : 21mn 36s
Bit rate                                 : 156 Kbps
Channel(s)                               : 2 channels
Channel positions                        : Front: L R
Sampling rate                            : 48.0 KHz
Frame rate                               : 46.875 fps (1024 spf)
Compression mode                         : Lossy
Delay relative to video                  : 6ms
Stream size                              : 24.1 MiB (3%)
Language                                 : English
Default                                  : Yes
Forced                                   : No

Text
ID                                       : 3
Format                                   : UTF-8
Codec ID                                 : S_TEXT/UTF8
Codec ID/Info                            : UTF-8 Plain Text
Duration                                 : 21mn 29s
Bit rate                                 : 131 bps
Count of elements                        : 596
Stream size                              : 20.7 KiB (0%)
Language                                 : English
Default                                  : No
Forced                                   : No