General
Unique ID                                : 232413403079702099797808574441777745097 (0xAED931789F89B62B95C7B6D0C8D34CC9)
Complete name                            : Workaholics.S06E09.Always.Bet.on.Blake.1080p.WEB-DL.AAC2.0.H.264-BTN.mkv
Format                                   : Matroska
Format version                           : Version 4 / Version 2
File size                                : 704 MiB
Duration                                 : 21mn 25s
Overall bit rate                         : 4 597 Kbps
Encoded date                             : UTC 2016-03-11 09:08:19
Writing application                      : mkvmerge v8.3.0 ('Over the Horizon') 64bit
Writing library                          : libebml v1.3.1 + libmatroska v1.4.2

Video
ID                                       : 2
Format                                   : AVC
Format/Info                              : Advanced Video Codec
Format profile                           : High@L4
Format settings, CABAC                   : Yes
Format settings, ReFrames                : 4 frames
Codec ID                                 : V_MPEG4/ISO/AVC
Duration                                 : 21mn 25s
Bit rate                                 : 4 444 Kbps
Width                                    : 1 916 pixels
Height                                   : 1 076 pixels
Display aspect ratio                     : 16:9
Frame rate mode                          : Constant
Frame rate                               : 23.976 (24000/1001) fps
Color space                              : YUV
Chroma subsampling                       : 4:2:0
Bit depth                                : 8 bits
Scan type                                : Progressive
Bits/(Pixel*Frame)                       : 0.090
Stream size                              : 681 MiB (97%)
Language                                 : English
Default                                  : Yes
Forced                                   : No
Color range                              : Limited
Color primaries                          : BT.709
Transfer characteristics                 : BT.709
Matrix coefficients                      : BT.709

Audio
ID                                       : 1
Format                                   : AAC
Format/Info                              : Advanced Audio Codec
Format profile                           : LC
Codec ID                                 : A_AAC
Duration                                 : 21mn 25s
Bit rate                                 : 150 Kbps
Channel(s)                               : 2 channels
Channel positions                        : Front: L R
Sampling rate                            : 48.0 KHz
Frame rate                               : 46.875 fps (1024 spf)
Compression mode                         : Lossy
Stream size                              : 23.0 MiB (3%)
Language                                 : English
Default                                  : Yes
Forced                                   : No

Text
ID                                       : 3
Format                                   : UTF-8
Codec ID                                 : S_TEXT/UTF8
Codec ID/Info                            : UTF-8 Plain Text
Duration                                 : 21mn 17s
Bit rate                                 : 115 bps
Count of elements                        : 582
Stream size                              : 18.0 KiB (0%)
Language                                 : English
Default                                  : Yes
Forced                                   : No