General
Unique ID                                : 234029891636775327316191963791507246716 (0xB0108482A55280F79BB43950A756CE7C)
Complete name                            : It's Always Sunny in Philadelphia S11E08 Charlie Catches a Leprechaun 720p WEB-DL AAC2.0 H.264-Oosh.mkv
Format                                   : Matroska
Format version                           : Version 4 / Version 2
File size                                : 646 MiB
Duration                                 : 21mn 50s
Overall bit rate                         : 4 138 Kbps
Encoded date                             : UTC 2016-02-25 23:08:27
Writing application                      : mkvmerge v8.9.0 ('Father Daughter') 64bit
Writing library                          : libebml v1.3.3 + libmatroska v1.4.4

Video
ID                                       : 2
Format                                   : AVC
Format/Info                              : Advanced Video Codec
Format profile                           : [email protected]
Format settings, CABAC                   : No
Format settings, ReFrames                : 2 frames
Codec ID                                 : V_MPEG4/ISO/AVC
Duration                                 : 21mn 50s
Bit rate                                 : 3 981 Kbps
Width                                    : 1 280 pixels
Height                                   : 718 pixels
Display aspect ratio                     : 16:9
Frame rate mode                          : Constant
Frame rate                               : 23.976 (23976/1000) fps
Color space                              : YUV
Chroma subsampling                       : 4:2:0
Bit depth                                : 8 bits
Scan type                                : Progressive
Bits/(Pixel*Frame)                       : 0.181
Stream size                              : 622 MiB (96%)
Default                                  : Yes
Forced                                   : No
Color range                              : Limited
Color primaries                          : BT.709
Transfer characteristics                 : BT.709
Matrix coefficients                      : BT.709

Audio
ID                                       : 3
Format                                   : AAC
Format/Info                              : Advanced Audio Codec
Format profile                           : LC
Codec ID                                 : A_AAC
Duration                                 : 21mn 49s
Bit rate                                 : 154 Kbps
Channel(s)                               : 2 channels
Channel positions                        : Front: L R
Sampling rate                            : 48.0 KHz
Frame rate                               : 46.875 fps (1024 spf)
Compression mode                         : Lossy
Delay relative to video                  : 84ms
Stream size                              : 24.1 MiB (4%)
Language                                 : English
Default                                  : Yes
Forced                                   : No

Text
ID                                       : 1
Format                                   : UTF-8
Codec ID                                 : S_TEXT/UTF8
Codec ID/Info                            : UTF-8 Plain Text
Duration                                 : 21mn 43s
Bit rate                                 : 191 bps
Count of elements                        : 590
Stream size                              : 30.4 KiB (0%)
Language                                 : English
Default                                  : No
Forced                                   : No