03/07/2015

http://www.allocine.fr/film/fichefilm_gen_cfilm=206788.html

Date de sortie 	11 mars 2015 (1h23min) 
RΘalisΘ par 	David Gelb
Avec 	Mark Duplass, Olivia Wilde, Donald Glover 
Genre 	Epouvante-horreur
NationalitΘ 	AmΘricain

 Synopsis :
 
Avertissement : des scΦnes, des propos ou des images peuvent heurter la 
sensibilitΘ des spectateurs

Une Θquipe de chercheurs universitaires dΘcouvre comment ramener les morts α la 
vie. Ils n'imaginent pas ce que leurs expΘriences vont dΘclencher.

================================================================================
*                        Fichiers contenus dans le post                        *
================================================================================
The.Lazarus.Effect.2015.TRUEFRENCH.BDRiP.XViD-AViTECH.avi               01:23:11
================================================================================
* Duree totale du post .........: 01:23:11                                     *
* Taille totale du post ........: 699.56 Mo                                    *
================================================================================

================================================================================
*          The.Lazarus.Effect.2015.TRUEFRENCH.BDRiP.XViD-AViTECH.avi           *
================================================================================
* Format                        : AVI                                          *
* Format/Info                   : Audio Video Interleave                       *
* File size                     : 700 MiB                                      *
* Duration                      : 1h 23mn                                      *
* Overall bit rate mode         : Variable                                     *
* Overall bit rate              : 1 176 Kbps                                   *
* Writing application           : VirtualDubMod 1.5.10.2 (build 2540/release)  *
* Writing library               : VirtualDubMod build 2540/release             *
* ================================== Video =================================== *
* ID                            : 0                                            *
* Format                        : MPEG-4 Visual                                *
* Format profile                : Advanced [email protected]                           *
* Format settings, BVOP         : 2                                            *
* Format settings, QPel         : No                                           *
* Format settings, GMC          : No warppoints                                *
* Format settings, Matrix       : Default (H.263)                              *
* Muxing mode                   : Packed bitstream                             *
* Codec ID                      : XVID                                         *
* Codec ID/Hint                 : XviD                                         *
* Duration                      : 1h 23mn                                      *
* Bit rate                      : 1 036 Kbps                                   *
* Width                         : 720 pixels                                   *
* Height                        : 304 pixels                                   *
* Display aspect ratio          : 2.35:1                                       *
* Frame rate                    : 23.976 fps                                   *
* Color space                   : YUV                                          *
* Chroma subsampling            : 4:2:0                                        *
* Bit depth                     : 8 bits                                       *
* Scan type                     : Progressive                                  *
* Compression mode              : Lossy                                        *
* Bits/(Pixel*Frame)            : 0.197                                        *
* Stream size                   : 617 MiB (88%)                                *
* Writing library               : XviD 65                                      *
* ================================= Audio #1 ================================= *
* ID                            : 1                                            *
* Format                        : MPEG Audio                                   *
* Format version                : Version 1                                    *
* Format profile                : Layer 3                                      *
* Mode                          : Joint stereo                                 *
* Mode extension                : MS Stereo                                    *
* Codec ID                      : 55                                           *
* Codec ID/Hint                 : MP3                                          *
* Duration                      : 1h 23mn                                      *
* Bit rate mode                 : Variable                                     *
* Bit rate                      : 128 Kbps                                     *
* Channel(s)                    : 2 channels                                   *
* Sampling rate                 : 48.0 KHz                                     *
* Compression mode              : Lossy                                        *
* Stream size                   : 75.4 MiB (11%)                               *
* Alignment                     : Aligned on interleaves                       *
* Interleave, duration          : 24 ms (0.58 video frame)                     *
* Interleave, preload duration  : 159 ms                                       *
* Writing library               : LAME3.90.                                    *

================================================================================
*                           INFORMATION SUR LE POST                            *
================================================================================
* Taille des donnees sans par2..: 699.56 Mo                                    *
* Nombre de rar.................: 21                                           *
* Taille des rar................: 33.69 Mo                                     *
* Par2..........................: 10%                                          *
* Nombre de bloc de recuperation: 192                                          *
* Taille d'un bloc..............: 375.00 Ko                                    *