General
Unique ID                                : 196640853487754884990272386763596248065 (0x93EFA69AF8F7411744D7F6E05CE43401)
Complete name                            : Tyler.Perrys.The.Oval.S03E13.Tragic.Monologues.720p.AMZN.WEB-DL.DDP2.0.H.264-NOSiViD.mkv
Format                                   : Matroska
Format version                           : Version 4
File size                                : 1 007 MiB
Duration                                 : 42 min 52 s
Overall bit rate                         : 3 283 kb/s
Movie name                               : The Oval  - S03E13 - Tragic Monologues
Writing application                      : mkvmerge v64.0.0 ('Willows') 64-bit
Writing library                          : libebml v1.4.2 + libmatroska v1.6.4
IMDB                                     : tt10580092
TMDB                                     : tv/95004
TVDB                                     : 367658

Video
ID                                       : 1
Format                                   : AVC
Format/Info                              : Advanced Video Codec
Format profile                           : [email protected]
Format settings                          : CABAC / 4 Ref Frames
Format settings, CABAC                   : Yes
Format settings, Reference frames        : 4 frames
Codec ID                                 : V_MPEG4/ISO/AVC
Duration                                 : 42 min 52 s
Bit rate mode                            : Constant
Bit rate                                 : 3 057 kb/s
Nominal bit rate                         : 6 000 kb/s
Width                                    : 1 280 pixels
Height                                   : 720 pixels
Display aspect ratio                     : 16:9
Frame rate mode                          : Constant
Frame rate                               : 23.976 (24000/1001) FPS
Color space                              : YUV
Chroma subsampling                       : 4:2:0
Bit depth                                : 8 bits
Scan type                                : Progressive
Bits/(Pixel*Frame)                       : 0.138
Stream size                              : 937 MiB (93%)
Default                                  : No
Forced                                   : No
Color range                              : Limited
Color primaries                          : BT.709
Transfer characteristics                 : BT.709
Matrix coefficients                      : BT.709

Audio
ID                                       : 2
Format                                   : E-AC-3
Format/Info                              : Enhanced AC-3
Commercial name                          : Dolby Digital Plus
Codec ID                                 : A_EAC3
Duration                                 : 42 min 52 s
Bit rate mode                            : Constant
Bit rate                                 : 224 kb/s
Channel(s)                               : 2 channels
Channel layout                           : L R
Sampling rate                            : 48.0 kHz
Frame rate                               : 31.250 FPS (1536 SPF)
Compression mode                         : Lossy
Stream size                              : 68.7 MiB (7%)
Language                                 : English
Service kind                             : Complete Main
Default                                  : No
Forced                                   : No

Text #1
ID                                       : 3
Format                                   : UTF-8
Codec ID                                 : S_TEXT/UTF8
Codec ID/Info                            : UTF-8 Plain Text
Duration                                 : 42 min 1 s
Bit rate                                 : 75 b/s
Count of elements                        : 764
Stream size                              : 23.1 KiB (0%)
Language                                 : English
Default                                  : No
Forced                                   : No

Text #2
ID                                       : 4
Format                                   : UTF-8
Codec ID                                 : S_TEXT/UTF8
Codec ID/Info                            : UTF-8 Plain Text
Duration                                 : 42 min 40 s
Bit rate                                 : 78 b/s
Count of elements                        : 802
Stream size                              : 24.4 KiB (0%)
Title                                    : SDH
Language                                 : English
Default                                  : No
Forced                                   : No

Menu
00:02:08.000                             : en:Intro
00:42:15.000                             : en:Credits