08/09/2021

https://www.985fm.ca/nouvelles/showbiz/421842/je-ne-pensais-pas-revivre-autant-d
-emotions-en-revisitant-le-lieu-d-atterissage-robert-piche

Info : Rappelons que Piché était aux commandes de l'Airbus A330-200 sur le vol 
236 Air Transat entre Toronto et Lisbonne. Il avait alors réussi avec son 
copilote Dirk de Jager un atterrissage d'urgence sur la piste de la base de 
Lajes, aux Açores, sans moteurs et après un vol plané de plus de 20 minutes à 
cause d'une fuite de carburant, sauvant ainsi la vie de ses 293 passagers et 
des 13 membres d'équipage.

================================================================================
*                        Fichiers contenus dans le post                        *
================================================================================
19 minutes l'exploit Piché-vol.236 french 720p .mp4                        42:38
================================================================================
* Duree totale du post .........: 42:38                                        *
* Taille totale du post ........: 636.37 Mo                                    *
================================================================================

================================================================================
*             19 minutes l'exploit Piché-vol.236 french 720p .mp4              *
================================================================================
* Format                        : MPEG-4                                       *
* Format profile                : Base Media                                   *
* Codec ID                      : isom                                         *
* File size                     : 636 MiB                                      *
* Duration                      : 42mn 38s                                     *
* Overall bit rate              : 2 086 Kbps                                   *
* Writing application           : Lavf55.12.100                                *
* ================================== Video =================================== *
* ID                            : 2                                            *
* Format                        : AVC                                          *
* Format/Info                   : Advanced Video Codec                         *
* Format profile                : [email protected]                                    *
* Format settings, CABAC        : Yes                                          *
* Format settings, ReFrames     : 2 frames                                     *
* Format settings, GOP          : M=3, N=30                                    *
* Codec ID                      : avc1                                         *
* Codec ID/Info                 : Advanced Video Coding                        *
* Duration                      : 42mn 38s                                     *
* Bit rate                      : 1 947 Kbps                                   *
* Width                         : 1 280 pixels                                 *
* Height                        : 720 pixels                                   *
* Display aspect ratio          : 16:9                                         *
* Frame rate mode               : Constant                                     *
* Frame rate                    : 29.970 fps                                   *
* Color space                   : YUV                                          *
* Chroma subsampling            : 4:2:0                                        *
* Bit depth                     : 8 bits                                       *
* Scan type                     : Progressive                                  *
* Bits/(Pixel*Frame)            : 0.070                                        *
* Stream size                   : 594 MiB (93%)                                *
* ================================= Audio #1 ================================= *
* ID                            : 1                                            *
* Format                        : AAC                                          *
* Format/Info                   : Advanced Audio Codec                         *
* Format profile                : LC                                           *
* Codec ID                      : 40                                           *
* Duration                      : 42mn 38s                                     *
* Bit rate mode                 : Constant                                     *
* Bit rate                      : 132 Kbps                                     *
* Channel(s)                    : 2 channels                                   *
* Channel positions             : Front: L R                                   *
* Sampling rate                 : 48.0 KHz                                     *
* Compression mode              : Lossy                                        *
* Delay relative to video       : -1s 1ms                                      *
* Stream size                   : 40.1 MiB (6%)                                *

================================================================================
*                           INFORMATION SUR LE POST                            *
================================================================================
* Taille des donnees sans par2..: 636.37 Mo                                    *
* Nombre de rar.................: 19                                           *
* Taille des rar................: 33.69 Mo                                     *
* Par2..........................: 10%                                          *
* Nombre de bloc de recup.......: 174                                          *
* Taille d'un bloc..............: 375.00 Ko                                    *
* Nom a rechercher..............: HTL0F8NZ8PFCJ7Z5W3286                        *
* Posteur.......................: [email protected]                            *
* Groupes.......................: a.b.french,a.b.movies.divx.french            *


pw : 6D10NZ5SNN