05/06/2021

================================================================================
*                        Fichiers contenus dans le post                        *
================================================================================
Un grand pas pour l'évolution -L'intelligence-French 720p.mp4              49:08
================================================================================
* Duree totale du post .........: 49:08                                        *
* Taille totale du post ........: 688.45 Mo                                    *
================================================================================

================================================================================
*        Un grand pas pour l'évolution -L'intelligence-French 720p.mp4         *
================================================================================
* Format                        : MPEG-4                                       *
* Format profile                : Base Media                                   *
* Codec ID                      : isom                                         *
* File size                     : 688 MiB                                      *
* Duration                      : 49mn 8s                                      *
* Overall bit rate              : 1 958 Kbps                                   *
* Writing application           : Lavf55.12.100                                *
* ================================== Video =================================== *
* ID                            : 2                                            *
* Format                        : AVC                                          *
* Format/Info                   : Advanced Video Codec                         *
* Format profile                : [email protected]                                    *
* Format settings, CABAC        : Yes                                          *
* Format settings, ReFrames     : 2 frames                                     *
* Format settings, GOP          : M=3, N=30                                    *
* Codec ID                      : avc1                                         *
* Codec ID/Info                 : Advanced Video Coding                        *
* Duration                      : 49mn 8s                                      *
* Duration_FirstFrame           : 67ms                                         *
* Bit rate                      : 1 821 Kbps                                   *
* Width                         : 1 280 pixels                                 *
* Height                        : 720 pixels                                   *
* Display aspect ratio          : 16:9                                         *
* Frame rate mode               : Constant                                     *
* Frame rate                    : 29.970 fps                                   *
* Color space                   : YUV                                          *
* Chroma subsampling            : 4:2:0                                        *
* Bit depth                     : 8 bits                                       *
* Scan type                     : Progressive                                  *
* Bits/(Pixel*Frame)            : 0.066                                        *
* Stream size                   : 640 MiB (93%)                                *
* ================================= Audio #1 ================================= *
* ID                            : 1                                            *
* Format                        : AAC                                          *
* Format/Info                   : Advanced Audio Codec                         *
* Format profile                : LC                                           *
* Codec ID                      : 40                                           *
* Duration                      : 49mn 8s                                      *
* Bit rate mode                 : Constant                                     *
* Bit rate                      : 129 Kbps                                     *
* Channel(s)                    : 2 channels                                   *
* Channel positions             : Front: L R                                   *
* Sampling rate                 : 48.0 KHz                                     *
* Compression mode              : Lossy                                        *
* Delay relative to video       : -3s 3ms                                      *
* Stream size                   : 45.4 MiB (7%)                                *

================================================================================
*                           INFORMATION SUR LE POST                            *
================================================================================
* Taille des donnees sans par2..: 688.45 Mo                                    *
* Nombre de rar.................: 21                                           *
* Taille des rar................: 33.69 Mo                                     *
* Par2..........................: 10%                                          *
* Nombre de bloc de recup.......: 188                                          *
* Taille d'un bloc..............: 375.00 Ko                                    *
* Nom a rechercher..............: 4389V834S23392G3I5M01Y588                    *
* Posteur.......................: [email protected]                            *
* Groupes.......................: a.b.french,a.b.movies.divx.french            *


pw : 3E713OI