05/06/2021

https://m.facebook.com/watch/?v=10154393964944597&_rdr

Info : leur mode de reproduction n'était pas encore au point : ils pondaient des
oeufs et s'occupaient très peu de leurs descendants. Pourtant, les dernières 
recherches montrent que ce type de créature pourrait en réalité être à l'origine 
des liens forts qui se créent chez les mammifères, entre les parents et 
leurs petits.

================================================================================
*                        Fichiers contenus dans le post                        *
================================================================================
Un grand pas pour l'évolution -Le lien maternel- French 720p.mp4           49:09
================================================================================
* Duree totale du post .........: 49:09                                        *
* Taille totale du post ........: 1.27 Go                                      *
================================================================================

================================================================================
*       Un grand pas pour l'évolution -Le lien maternel- French 720p.mp4       *
================================================================================
* Format                        : MPEG-4                                       *
* Format profile                : Base Media                                   *
* Codec ID                      : isom                                         *
* File size                     : 1.27 GiB                                     *
* Duration                      : 49mn 9s                                      *
* Overall bit rate              : 3 711 Kbps                                   *
* Writing application           : Lavf55.12.100                                *
* ================================== Video =================================== *
* ID                            : 2                                            *
* Format                        : AVC                                          *
* Format/Info                   : Advanced Video Codec                         *
* Format profile                : [email protected]                                    *
* Format settings, CABAC        : Yes                                          *
* Format settings, ReFrames     : 2 frames                                     *
* Format settings, GOP          : M=3, N=30                                    *
* Codec ID                      : avc1                                         *
* Codec ID/Info                 : Advanced Video Coding                        *
* Duration                      : 49mn 9s                                      *
* Duration_FirstFrame           : 67ms                                         *
* Bit rate                      : 3 574 Kbps                                   *
* Width                         : 1 280 pixels                                 *
* Height                        : 720 pixels                                   *
* Display aspect ratio          : 16:9                                         *
* Frame rate mode               : Constant                                     *
* Frame rate                    : 29.970 fps                                   *
* Color space                   : YUV                                          *
* Chroma subsampling            : 4:2:0                                        *
* Bit depth                     : 8 bits                                       *
* Scan type                     : Progressive                                  *
* Bits/(Pixel*Frame)            : 0.129                                        *
* Stream size                   : 1.23 GiB (96%)                               *
* ================================= Audio #1 ================================= *
* ID                            : 1                                            *
* Format                        : AAC                                          *
* Format/Info                   : Advanced Audio Codec                         *
* Format profile                : LC                                           *
* Codec ID                      : 40                                           *
* Duration                      : 49mn 9s                                      *
* Bit rate mode                 : Constant                                     *
* Bit rate                      : 129 Kbps                                     *
* Channel(s)                    : 2 channels                                   *
* Channel positions             : Front: L R                                   *
* Sampling rate                 : 48.0 KHz                                     *
* Compression mode              : Lossy                                        *
* Delay relative to video       : -3s 3ms                                      *
* Stream size                   : 45.5 MiB (3%)                                *

================================================================================
*                           INFORMATION SUR LE POST                            *
================================================================================
* Taille des donnees sans par2..: 1.27 Go                                      *
* Nombre de rar.................: 23                                           *
* Taille des rar................: 57.50 Mo                                     *
* Par2..........................: 9%                                           *
* Nombre de bloc de recup.......: 321                                          *
* Taille d'un bloc..............: 375.00 Ko                                    *
* Nom a rechercher..............: C4UYJXF24813F5S                              *
* Posteur.......................: [email protected]                            *
* Groupes.......................: a.b.french,a.b.movies.divx.french            *


pw : 2VCJ74NRVK