General
Complete name                            : After.the.Thin.Man.1936.720p.BRrip.mkv
IMDB                                     : https://www.imdb.com/title/tt0027260/
Format                                   : Matroska
Format version                           : Version 4
File size                                : 1.92 GiB
Duration                                 : 1 h 52 min
Overall bit rate                         : 2 449 kb/s
Encoded date                             : UTC 2021-02-04 09:29:06

Video
ID                                       : 1
Format                                   : AVC
Format/Info                              : Advanced Video Codec
Format profile                           : [email protected]
Format settings                          : CABAC / 6 Ref Frames
Format settings, CABAC                   : Yes
Format settings, Reference frames        : 6 frames
Codec ID                                 : V_MPEG4/ISO/AVC
Duration                                 : 1 h 52 min
Bit rate                                 : 2 255 kb/s
Width                                    : 986 pixels
Height                                   : 720 pixels
Display aspect ratio                     : 4:3
Frame rate mode                          : Constant
Frame rate                               : 23.976 (24000/1001) FPS
Color space                              : YUV
Chroma subsampling                       : 4:2:0
Bit depth                                : 8 bits
Scan type                                : Progressive
Bits/(Pixel*Frame)                       : 0.133
Stream size                              : 1.77 GiB (92%)
Writing library                          : x264 core 157 r2935 545de2f
Encoding settings                        : cabac=1 / ref=6 / deblock=1:-1:-1 / analyse=0x3:0x133 / me=umh / subme=9 / psy=1 / psy_rd=1.00:0.15 / mixed_ref=1 / me_range=16 / chroma_me=1 / trellis=2 / 8x8dct=1 / cqm=0 / deadzone=21,11 / fast_pskip=1 / chroma_qp_offset=-3 / threads=6 / lookahead_threads=1 / sliced_threads=0 / nr=0 / decimate=1 / interlaced=0 / bluray_compat=0 / constrained_intra=0 / bframes=3 / b_pyramid=2 / b_adapt=2 / b_bias=0 / direct=3 / weightb=1 / open_gop=0 / weightp=2 / keyint=240 / keyint_min=24 / scenecut=40 / intra_refresh=0 / rc_lookahead=60 / rc=crf / mbtree=1 / crf=22.5 / qcomp=0.60 / qpmin=0 / qpmax=69 / qpstep=4 / vbv_maxrate=17500 / vbv_bufsize=17500 / crf_max=0.0 / nal_hrd=none / filler=0 / ip_ratio=1.40 / aq=1:1.00
Default                                  : Yes
Forced                                   : No
Color range                              : Limited
Color primaries                          : BT.709
Transfer characteristics                 : BT.709
Matrix coefficients                      : BT.709

Audio
ID                                       : 2
Format                                   : AC-3
Format/Info                              : Audio Coding 3
Commercial name                          : Dolby Digital
Codec ID                                 : A_AC3
Duration                                 : 1 h 52 min
Bit rate mode                            : Constant
Bit rate                                 : 192 kb/s
Channel(s)                               : 2 channels
Channel layout                           : L R
Sampling rate                            : 48.0 kHz
Frame rate                               : 31.250 FPS (1536 SPF)
Compression mode                         : Lossy
Delay relative to video                  : -5 ms
Stream size                              : 154 MiB (8%)
Title                                    : Stereo
Language                                 : English
Service kind                             : Complete Main
Default                                  : Yes
Forced                                   : No

Text
ID                                       : 3
Format                                   : UTF-8
Codec ID                                 : S_TEXT/UTF8
Codec ID/Info                            : UTF-8 Plain Text
Duration                                 : 1 h 49 min
Bit rate                                 : 89 b/s
Count of elements                        : 2270
Stream size                              : 72.2 KiB (0%)
Default                                  : Yes
Forced                                   : No

Menu
00:00:00.005                             : :Chapter 1
00:01:26.925                             : :Chapter 2
00:07:33.959                             : :Chapter 3
00:12:27.418                             : :Chapter 4
00:15:57.962                             : :Chapter 5
00:20:14.385                             : :Chapter 6
00:23:53.437                             : :Chapter 7
00:27:42.166                             : :Chapter 8
00:30:06.310                             : :Chapter 9
00:33:30.347                             : :Chapter 10
00:37:57.113                             : :Chapter 11
00:38:16.299                             : :Chapter 12
00:41:29.492                             : :Chapter 13
00:46:07.103                             : :Chapter 14
00:50:17.853                             : :Chapter 15
00:54:58.801                             : :Chapter 16
00:58:58.874                             : :Chapter 17
01:02:26.915                             : :Chapter 18
01:06:50.345                             : :Chapter 19
01:12:30.184                             : :Chapter 20
01:15:17.351                             : :Chapter 21
01:20:30.998                             : :Chapter 22
01:23:02.483                             : :Chapter 23
01:29:12.018                             : :Chapter 24
01:33:19.099                             : :Chapter 25
01:36:05.265                             : :Chapter 26
01:40:47.380                             : :Chapter 27
01:45:13.979                             : :Chapter 28
01:49:49.755                             : :Chapter 29
01:52:03.222                             : :Chapter 30