((--->Love you Marrvyn!))
General
Television show title (English)          : Mess
Alternate title                          : Mess
Synopsis                                 : Soon after moving to New York City to pursue his dream of becoming an actor, 22-year-old Andy is diagnosed with HIV. Now, Andy and his three best friends must come to terms with his life-changing news while struggling to survive life in the city.
imdb.com URL                             : http://imdb.com/title/tt5610070/
thetvdb.com URL                          : http://www.thetvdb.com/?tab=series&id=380722
Episode season                           : 01
Episode number                           : 01, 02, 03, 04, 05, 06
Episode name (English)                   : Episode 1, Episode 2, Episode 3, Episode 4, Episode 5, Episode 6
Synopsis                                 : We meet the boys. Andy gets diagnosed with HIV, Simon breaks up with his boyfriend, Freddy gets a callback, and Conrad gets fired. How does Andy cope? Why does Simon hate sex? What's next for Freddy and Conrad's professional futures? Special guest star Anthony Rapp appears to help Andy figure out his next move. Conrad makes an unexpected career decision. Meanwhile, Simon is busy getting an education from the friendly, neighborhood gym slut and Freddy is busy denying his feelings for Andy. Conrad's new career path seems to be working out, much to the dismay of Simon. Freddy forces Andy to go on a run just to get him out of the house. While on a run through the park, Andy meets Tom and the two consummate their lust in a way only gay men can. Is Andy really attracted to him or is he just pacifying his self-mourning? What's a condom anyway? Conrad and Freddy discuss sero-discordant sex, while Andy and Tom discuss the merits of condom usage. Later, Andy and Freddy cut loose in a much needed night out that all becomes a bit much for Andy when he descends into a painful bout of self-pity. Meanwhile Simon is having second thoughts about how he's chosen to deal with Andy's diagnosis. Andy self-medicates with some meaningless sex and in what is quickly becoming a habit, Simon gets school by the boys on life after diagnosis. Conrad's career starts to affect the boys in unexpected ways--particularly Simon. Andy comes to terms with what Tom means and represents, and all the boys are left with a sense of 'what comes next?'. As Andy and Conrad both process potentially career-launching opportunites, the boys all take stock of how far they've come. Andy and Simon run into each other for the first time in months. Freddy and Andy have some unfinished business to take care of, and Andy finally goes to therapy to confront the past few months.
Broadcast date                           : 02-Oct-2016
Language (original)                      : English
Subtitile Hard Burn (ontop of image)     : False
Subtitles Soft (selectable track)        : True (English)
File name                                : Mess.s01e01-s01e06.tt5610070.WebRip.Marrvyn.h264.ac3.aac.mkv
Format                                   : Matroska
Format version                           : Version 4
File size                                : 1.04 GiB
Duration                                 : 51 min 23 s
Overall bit rate                         : 2 893 kb/s
Encoded date                             : UTC 2020-10-20 00:50:34
Writing application                      : mkvmerge v51.0.0 ('I Wish') 64-bit
Writing library                          : libebml v1.4.0 + libmatroska v1.6.2 / Lavf58.29.100

Video
ID                                       : 1
Format                                   : AVC
Format/Info                              : Advanced Video Codec
Format profile                           : [email protected]
Format settings                          : CABAC / 4 Ref Frames
Format settings, CABAC                   : Yes
Format settings, Reference frames        : 4 frames
Codec ID                                 : V_MPEG4/ISO/AVC
Duration                                 : 51 min 23 s
Bit rate                                 : 1 883 kb/s
Width                                    : 1 280 pixels
Height                                   : 720 pixels
Display aspect ratio                     : 16:9
Frame rate mode                          : Constant
Frame rate                               : 30.000 FPS
Color space                              : YUV
Chroma subsampling                       : 4:2:0
Bit depth                                : 8 bits
Scan type                                : Progressive
Bits/(Pixel*Frame)                       : 0.068
Stream size                              : 692 MiB (65%)
Writing library                          : x264 core 157 r2935 545de2f
Encoding settings                        : cabac=1 / ref=2 / deblock=1:0:0 / analyse=0x1:0x111 / me=hex / subme=6 / psy=1 / psy_rd=1.00:0.00 / mixed_ref=1 / me_range=16 / chroma_me=1 / trellis=1 / 8x8dct=0 / cqm=0 / deadzone=21,11 / fast_pskip=1 / chroma_qp_offset=-2 / threads=12 / lookahead_threads=2 / sliced_threads=0 / nr=0 / decimate=1 / interlaced=0 / bluray_compat=0 / constrained_intra=0 / bframes=3 / b_pyramid=2 / b_adapt=1 / b_bias=0 / direct=1 / weightb=1 / open_gop=0 / weightp=1 / keyint=300 / keyint_min=30 / scenecut=40 / intra_refresh=0 / rc_lookahead=30 / rc=crf / mbtree=1 / crf=18.0 / qcomp=0.60 / qpmin=0 / qpmax=69 / qpstep=4 / vbv_maxrate=20000 / vbv_bufsize=25000 / crf_max=0.0 / nal_hrd=none / filler=0 / ip_ratio=1.40 / aq=1:1.00
Language                                 : English
Default                                  : Yes
Forced                                   : No
Color range                              : Limited
Color primaries                          : BT.709
Transfer characteristics                 : BT.709
Matrix coefficients                      : BT.709

Audio #1
ID                                       : 2
Format                                   : AC-3
Format/Info                              : Audio Coding 3
Commercial name                          : Dolby Digital
Codec ID                                 : A_AC3
Duration                                 : 51 min 23 s
Bit rate mode                            : Constant
Bit rate                                 : 224 kb/s
Channel(s)                               : 2 channels
Channel layout                           : L R
Sampling rate                            : 44.1 kHz
Frame rate                               : 28.711 FPS (1536 SPF)
Compression mode                         : Lossy
Delay relative to video                  : -89 ms
Stream size                              : 82.3 MiB (8%)
Title                                    : Stereo
Language                                 : English
Service kind                             : Complete Main
Default                                  : Yes
Forced                                   : No

Audio #2
ID                                       : 3
Format                                   : AC-3
Format/Info                              : Audio Coding 3
Commercial name                          : Dolby Digital
Codec ID                                 : A_AC3
Duration                                 : 51 min 23 s
Bit rate mode                            : Constant
Bit rate                                 : 512 kb/s
Channel(s)                               : 2 channels
Channel layout                           : L R
Sampling rate                            : 48.0 kHz
Frame rate                               : 31.250 FPS (1536 SPF)
Compression mode                         : Lossy
Delay relative to video                  : -88 ms
Stream size                              : 188 MiB (18%)
Title                                    : Stereo
Language                                 : English
Service kind                             : Complete Main
Default                                  : No
Forced                                   : No

Audio #3
ID                                       : 4
Format                                   : AAC LC
Format/Info                              : Advanced Audio Codec Low Complexity
Codec ID                                 : A_AAC-2
Duration                                 : 51 min 23 s
Bit rate                                 : 270 kb/s
Channel(s)                               : 2 channels
Channel layout                           : L R
Sampling rate                            : 48.0 kHz
Frame rate                               : 46.875 FPS (1024 SPF)
Compression mode                         : Lossy
Delay relative to video                  : -104 ms
Stream size                              : 99.3 MiB (9%)
Title                                    : Stereo
Language                                 : English
Default                                  : No
Forced                                   : No

Text
ID                                       : 5
Format                                   : ASS
Codec ID                                 : S_TEXT/ASS
Codec ID/Info                            : Advanced Sub Station Alpha
Duration                                 : 50 min 33 s
Bit rate                                 : 119 b/s
Count of elements                        : 973
Compression mode                         : Lossless
Stream size                              : 44.3 KiB (0%)
Language                                 : English
Default                                  : No
Forced                                   : No