((--->Love you Marrvyn!))
General
Television show title (English)          : How Far Will You Go?
Alternate title                          : 
Synopsis                                 : "How Far Will You Go?" follows a group of aspiring gay models and their ambitious talent agents as they claw their way through hard work and heartbreak towards careers in gay modeling. Shot behind the scenes at a male modeling competition in Vancouver BC, this documentary series is a real look into the stories and lives of the people involved.
imdb.com URL                             : http://imdb.com/title/tt1589104/
thetvdb.com URL                          : http://www.thetvdb.com/?tab=series&id=322301
Episode season                           : 01
Episode number                           : 02
Episode name (English)                   : Episode 2
Synopsis                                 : In episode 2, the model hopefuls learn choreography with dance coach Rob Trinh and only the best will be selected to dance as go-go boys at WhistlerΓÇÖs Snowball event.
Broadcast date                           : 14-Jun-2008
Language (original)                      : English
Subtitile Hard Burn (ontop of image)     : False
Subtitles Soft (selectable track)        : True (English
File name                                : How.Far.Will.You.Go.s01e02.WebRip.480p.Marrvyn.h264.ac3.aac.mkv
Format                                   : Matroska
Format version                           : Version 4
File size                                : 427 MiB
Duration                                 : 26 min 4 s
Overall bit rate                         : 2 290 kb/s
Encoded date                             : UTC 2020-10-19 13:37:46
Writing application                      : mkvmerge v51.0.0 ('I Wish') 64-bit
Writing library                          : libebml v1.4.0 + libmatroska v1.6.2 / Lavf58.29.100

Video
ID                                       : 1
Format                                   : AVC
Format/Info                              : Advanced Video Codec
Format profile                           : [email protected]
Format settings                          : CABAC / 4 Ref Frames
Format settings, CABAC                   : Yes
Format settings, Reference frames        : 4 frames
Codec ID                                 : V_MPEG4/ISO/AVC
Duration                                 : 26 min 3 s
Bit rate                                 : 1 171 kb/s
Width                                    : 656 pixels
Height                                   : 480 pixels
Display aspect ratio                     : 4:3
Frame rate mode                          : Constant
Frame rate                               : 30.000 FPS
Color space                              : YUV
Chroma subsampling                       : 4:2:0
Bit depth                                : 8 bits
Scan type                                : Progressive
Bits/(Pixel*Frame)                       : 0.124
Stream size                              : 218 MiB (51%)
Writing library                          : x264 core 157 r2935 545de2f
Encoding settings                        : cabac=1 / ref=2 / deblock=1:0:0 / analyse=0x1:0x111 / me=hex / subme=6 / psy=1 / psy_rd=1.00:0.00 / mixed_ref=1 / me_range=16 / chroma_me=1 / trellis=1 / 8x8dct=0 / cqm=0 / deadzone=21,11 / fast_pskip=1 / chroma_qp_offset=-2 / threads=12 / lookahead_threads=2 / sliced_threads=0 / nr=0 / decimate=1 / interlaced=0 / bluray_compat=0 / constrained_intra=0 / bframes=3 / b_pyramid=2 / b_adapt=1 / b_bias=0 / direct=1 / weightb=1 / open_gop=0 / weightp=1 / keyint=300 / keyint_min=30 / scenecut=40 / intra_refresh=0 / rc_lookahead=30 / rc=crf / mbtree=1 / crf=18.0 / qcomp=0.60 / qpmin=0 / qpmax=69 / qpstep=4 / vbv_maxrate=20000 / vbv_bufsize=25000 / crf_max=0.0 / nal_hrd=none / filler=0 / ip_ratio=1.40 / aq=1:1.00
Language                                 : English
Default                                  : Yes
Forced                                   : No
Color range                              : Limited
Color primaries                          : BT.601 NTSC
Transfer characteristics                 : BT.709
Matrix coefficients                      : BT.601

Audio #1
ID                                       : 2
Format                                   : AC-3
Format/Info                              : Audio Coding 3
Commercial name                          : Dolby Digital
Codec ID                                 : A_AC3
Duration                                 : 26 min 4 s
Bit rate mode                            : Constant
Bit rate                                 : 224 kb/s
Channel(s)                               : 2 channels
Channel layout                           : L R
Sampling rate                            : 44.1 kHz
Frame rate                               : 28.711 FPS (1536 SPF)
Compression mode                         : Lossy
Delay relative to video                  : -73 ms
Stream size                              : 41.8 MiB (10%)
Title                                    : Stereo
Language                                 : English
Service kind                             : Complete Main
Default                                  : Yes
Forced                                   : No

Audio #2
ID                                       : 3
Format                                   : AC-3
Format/Info                              : Audio Coding 3
Commercial name                          : Dolby Digital
Codec ID                                 : A_AC3
Duration                                 : 26 min 4 s
Bit rate mode                            : Constant
Bit rate                                 : 512 kb/s
Channel(s)                               : 2 channels
Channel layout                           : L R
Sampling rate                            : 48.0 kHz
Frame rate                               : 31.250 FPS (1536 SPF)
Compression mode                         : Lossy
Delay relative to video                  : -72 ms
Stream size                              : 95.5 MiB (22%)
Title                                    : Stereo
Language                                 : English
Service kind                             : Complete Main
Default                                  : No
Forced                                   : No

Audio #3
ID                                       : 4
Format                                   : AAC LC
Format/Info                              : Advanced Audio Codec Low Complexity
Codec ID                                 : A_AAC-2
Duration                                 : 26 min 4 s
Bit rate                                 : 384 kb/s
Channel(s)                               : 2 channels
Channel layout                           : L R
Sampling rate                            : 48.0 kHz
Frame rate                               : 46.875 FPS (1024 SPF)
Compression mode                         : Lossy
Delay relative to video                  : -88 ms
Stream size                              : 70.7 MiB (17%)
Title                                    : Stereo
Language                                 : English
Default                                  : No
Forced                                   : No

Text
ID                                       : 5
Format                                   : ASS
Codec ID                                 : S_TEXT/ASS
Codec ID/Info                            : Advanced Sub Station Alpha
Duration                                 : 25 min 28 s
Bit rate                                 : 172 b/s
Count of elements                        : 611
Compression mode                         : Lossless
Stream size                              : 32.1 KiB (0%)
Language                                 : English
Default                                  : No
Forced                                   : No