https://www.imdb.com/title/tt0095564

General
Complete name                            : Madame.Sousatzka.1988.DVDRip.XviD.avi
Format                                   : AVI
Format/Info                              : Audio Video Interleave
File size                                : 1.26 GiB
Duration                                 : 1 h 56 min
Overall bit rate mode                    : Variable
Overall bit rate                         : 1 549 kb/s
Writing application                      : Nandub v1.0rc2
Writing library                          : VirtualDub build 35491/release

Video
ID                                       : 0
Format                                   : MPEG-4 Visual
Format profile                           : Advanced [email protected]
Format settings                          : BVOP2
Format settings, BVOP                    : 2
Format settings, QPel                    : No
Format settings, GMC                     : No warppoints
Format settings, Matrix                  : Default (MPEG)
Muxing mode                              : Packed bitstream
Codec ID                                 : XVID
Codec ID/Hint                            : XviD
Duration                                 : 1 h 56 min
Bit rate                                 : 1 406 kb/s
Width                                    : 576 pixels
Height                                   : 432 pixels
Display aspect ratio                     : 4:3
Frame rate                               : 25.000 FPS
Color space                              : YUV
Chroma subsampling                       : 4:2:0
Bit depth                                : 8 bits
Scan type                                : Progressive
Compression mode                         : Lossy
Bits/(Pixel*Frame)                       : 0.226
Stream size                              : 1.14 GiB (91%)
Writing library                          : XviD 1.1.2 (UTC 2006-11-01)

Audio                                    : English
ID                                       : 1
Format                                   : MPEG Audio
Format version                           : Version 1
Format profile                           : Layer 3
Format settings                          : Joint stereo
Codec ID                                 : 55
Codec ID/Hint                            : MP3
Duration                                 : 1 h 56 min
Bit rate mode                            : Variable
Bit rate                                 : 130 kb/s
Nominal bit rate                         : 140 kb/s
Channel(s)                               : 2 channels
Sampling rate                            : 48.0 kHz
Frame rate                               : 41.667 FPS (1152 SPF)
Compression mode                         : Lossy
Stream size                              : 108 MiB (8%)
Alignment                                : Aligned on interleaves
Interleave, duration                     : 24  ms (0.60 video frame)
Interleave, preload duration             : 510  ms
Writing library                          : LAME3.97 
Encoding settings                        : -m j -V 4 -q 3 -lowpass 17 --abr 140