General
Unique ID                                : 214569238148264087695566945950099567202 (0xA16C883702F58FC995F53AF63B63F262)
Complete name                            : Big.Hero.6.The.Series.S01E09.The.Impatient.Patient.720p.iT.WEB-DL.AAC2.0.H.264-iT00NZ.mkv
Format                                   : Matroska
Format version                           : Version 4 / Version 2
File size                                : 654 MiB
Duration                                 : 22mn 6s
Overall bit rate                         : 4 137 Kbps
Encoded date                             : UTC 2018-07-08 11:30:21
Writing application                      : mkvmerge v18.0.0 ('Apricity') 64-bit
Writing library                          : libebml v1.3.5 + libmatroska v1.4.8

Video
ID                                       : 1
Format                                   : AVC
Format/Info                              : Advanced Video Codec
Format profile                           : [email protected]
Format settings, CABAC                   : No
Format settings, ReFrames                : 2 frames
Codec ID                                 : V_MPEG4/ISO/AVC
Duration                                 : 22mn 6s
Bit rate                                 : 3 979 Kbps
Width                                    : 1 280 pixels
Height                                   : 720 pixels
Display aspect ratio                     : 16:9
Frame rate mode                          : Constant
Frame rate                               : 23.976 (24000/1001) fps
Color space                              : YUV
Chroma subsampling                       : 4:2:0
Bit depth                                : 8 bits
Scan type                                : Progressive
Bits/(Pixel*Frame)                       : 0.180
Stream size                              : 629 MiB (96%)
Language                                 : English
Default                                  : Yes
Forced                                   : No
Color range                              : Limited
Color primaries                          : BT.709
Transfer characteristics                 : BT.709
Matrix coefficients                      : BT.709

Audio
ID                                       : 2
Format                                   : AAC
Format/Info                              : Advanced Audio Codec
Format profile                           : LC
Codec ID                                 : A_AAC
Duration                                 : 22mn 6s
Bit rate                                 : 155 Kbps
Channel(s)                               : 2 channels
Channel positions                        : Front: L R
Sampling rate                            : 48.0 KHz
Frame rate                               : 46.875 fps (1024 spf)
Compression mode                         : Lossy
Stream size                              : 24.5 MiB (4%)
Language                                 : English
Default                                  : Yes
Forced                                   : No

Text
ID                                       : 3
Format                                   : UTF-8
Codec ID                                 : S_TEXT/UTF8
Codec ID/Info                            : UTF-8 Plain Text
Duration                                 : 21mn 38s
Bit rate                                 : 88 bps
Count of elements                        : 442
Stream size                              : 14.1 KiB (0%)
Language                                 : English
Default                                  : No
Forced                                   : No